вход на сайт

Имя пользователя :
Пароль :

Восстановление пароля Регистрация
Одинокие сердца / Lonely Hearts (Пол Кокс, драма, мелодрама, 1975) [HDTVRip, Профессиональный (двухголосый закадровый) НТВ+]
Рейтинг:
(голосов: 1)



[img]{THEME}/images/logopost.png[/img]



Одинокие сердца / Lonely Hearts

Год выпуска: 1975
Страна: Австралия
Производство: Adam Packer Film Productions
Жанр: драма, мелодрама

Режиссёр: Пол Кокс
В ролях: Уэнди Хьюз, Норман Кэй, Джон Финлейсон, Джулия Блейк, Джонатан Харди, Ирен Инескорт, Вик Гордон, Ted Grove-Rogers, Рон Фальк, Крис Хейвуд

Перевод: Профессиональный (двухголосый закадровый) НТВ+
Субтитры: Отсутствуют

Описание:
50-летний маменькин сынок встретил женщину, тоже никогда не жившую сама по себе.


Дополнительно:
MediaInfo ▼Text
Общее
Полное имя :D:Одинокие сердцаОдинокие сердца.avi
Формат :AVI
Размер :1.44 GiB
Продолжительность :01:31:37.360
Общий поток :2 252 Kbps
Программа кодирования :VirtualDubMod 1.5.10.3 | www.virtualdub-fr.org || (build 2550/release)

Видео
Идентификатор :0
Формат :MPEG-4 Visual
Профиль формата :Advanced [email protected]
Параметр BVOP формата :2
Параметр Qpel формата :No
Параметр GMC формата :0
Параметр Matrix формата :Custom
Идентификатор кодека :XVID
Продолжительность :1h 31mn 37s 360ms
Битрейт :2 050 Kbps
Ширина :720 pixels
Высота :400 pixels
Соотношение сторон :1.800
Частота кадров :25.000 fps
Глубина цвета :8 bits
Подвыборка цветности :4:2:0
Цветовое пространство :YUV
Тип развертки :Progressive
Бит/(Пиксели*Кадры) :0.285
Размер потока :1.31 GiB (91%)
Библиотека кодирования :XviD0050

Аудио #1
Идентификатор :1
Формат :AC-3
Формат/Информация :Audio Coding 3
Идентификатор кодека :2000
Продолжительность :01:31:37.360
Вид битрейта :Constant
Битрейт :192 Kbps
Канал(ы) :2 channels
Расположение каналов :Front: L R
Частота :48.0 KHz
Битовая глубина :16 bits
Метод сжатия :Lossy
Размер потока :126 MiB (9%)



Тех. данные:
Качество:HDTVRip
Продолжительность:01:31:30 час

Формат: AVI
Видео кодек: XviD
Аудио кодек: AC3
Видео:
30a5f6cd953fc0a2e7244a7b0804c464132dcc45Одинокие сердца / Lonely Hearts (Пол Кокс, драма, мелодрама, 1975) [HDTVRip, Профессиональный (двухголосый закадровый) НТВ+] Одинокие сердца / Lonely Hearts (Пол Кокс, драма, мелодрама, 1975) [HDTVRip, Профессиональный (двухголосый закадровый) НТВ+] " />

Аплоадер: Админ, дата: 22-08-2013, 19:28, торрент скачан: 359 раз

Понравилась раздача? Посмотрите эти:
  • Последний раз, когда я видел Париж / The Last Time I Saw Paris (Ричард Брук ...
  • Танго ревности / Il tango della gelosia (Энрико Ванцина, Стено, Альдо Де Бе ...
  • Гарри-карманник / Harry in Your Pocket (Брюс Геллер, драма, комедия, кримин ...
  • Поездка в Америку / Coming to America (Джон Лэндис, драма, мелодрама, комед ...
  • Моя новая машина / It Takes Two (Дэвид Биэрд, комедия, 1988) [HDTVRip, Проф ...
  • Шампунь / Shampoo (Хэл Эшби, драма, мелодрама, 1975) [HDTVRip, Профессионал ...
  • Одинокие сердца / Lonely Hearts (Тодд Робинсон, триллер, драма, мелодрама, ...
  • К нам, маленькие англичанки! / A nous les petites Anglaises! (Мишель Ланг, ...
  • Процесс Жанны Д Арк / Proces de Jeanne dArc (Робер Брессон, драма, военный, ...
  • Поймет лишь одинокий / Only the Lonely (Крис Коламбус, мелодрама, комедия, ...
  • Одинокие сердца / Lonely Hearts [2006, Триллер, Мелодрама, Драма, Криминал, ...
  • Одинокие сердца / Lonely Hearts (Тодд Робинсон, триллер, драма, мелодрама, ...
  • Тристана / Tristana (Луис Бунюэль, Драма, 1970) [DVDRip, Профессиональный ( ...
  • Бог знает, мистер Аллисон / Heaven Knows, Mr. Allison (Джон Хьюстон, боевик ...
  • Великий Уолдо Пеппер / The Great Waldo Pepper (Джордж Рой Хилл, драма, прик ...
  • Рай и ад / Tengoku to jigoku (Акира Куросава, триллер, драма, криминал, 196 ...
  • Дьявольское око / Djдvulens цga (Ингмар Бергман, фэнтези, драма, комедия, 1 ...
  • Пески Иво Джимы / Sands of Iwo Jima (Аллан Дуон, боевик, драма, мелодрама, ...
  • Соседи / Neighbors (Джон Г. Эвилдсен, Комедия, 1981) [HDTVRip, Профессионал ...
  • Убей! / Kiru (Кихачи Окамото, боевик, драма, комедия, 1968) [DVDRip, Профес ...
  • Информация
    Посетители, находящиеся в группе Гости, не могут оставлять комментарии к данной публикации.