вход на сайт

Имя пользователя :
Пароль :

Восстановление пароля Регистрация
Гарри-карманник / Harry in Your Pocket (Брюс Геллер, драма, комедия, криминал, 1978) [HDTVRip, Профессиональный (двухголосый, закадровый)]
Рейтинг:
(голосов: 1)



[img]{THEME}/images/logopost.png[/img]



Гарри-карманник / Harry in Your Pocket

Год выпуска: 1978
Страна: США
Производство: Cinema Video Services
Жанр: драма, комедия, криминал

Режиссёр: Брюс Геллер
В ролях: Джеймс Коберн, Майкл Саразин, Триш Ван Девере, Уолтер Пиджон, Майкл С. Гвин,, Тони Джорджо, Майкл Стернс, Сьюзэн Маллен, Дуан Беннетт, Стэнли Болт

Перевод: Профессиональный (двухголосый, закадровый)
Субтитры: Отсутствуют

Описание:
Матерый карманник Гарри ищет и… находит талантливых учеников.


Дополнительно:
Рейтинг MPAA: ▼
Рейтинг PG - Рекомендуется присутствие родителей



MediaInfo ▼Text
Общее
Полное имя :J:Гарри-карманникГарри-карманник.avi
Формат :AVI
Размер :1.45 GiB
Продолжительность :01:38:45.720
Общий поток :2 101 Kbps
Программа кодирования :VirtualDubMod 1.5.10.3 | www.virtualdub-fr.org || (build 2550/release)

Видео
Идентификатор :0
Формат :MPEG-4 Visual
Профиль формата :Advanced [email protected]
Параметр BVOP формата :2
Параметр Qpel формата :No
Параметр GMC формата :0
Параметр Matrix формата :Custom
Идентификатор кодека :XVID
Продолжительность :1h 38mn 45s 720ms
Битрейт :1 900 Kbps
Ширина :720 pixels
Высота :400 pixels
Соотношение сторон :1.800
Частота кадров :25.000 fps
Глубина цвета :8 bits
Подвыборка цветности :4:2:0
Цветовое пространство :YUV
Тип развертки :Progressive
Бит/(Пиксели*Кадры) :0.264
Размер потока :1.31 GiB (90%)
Библиотека кодирования :XviD0050

Аудио #1
Идентификатор :1
Формат :AC-3
Формат/Информация :Audio Coding 3
Идентификатор кодека :2000
Продолжительность :01:38:45.720
Вид битрейта :Constant
Битрейт :192 Kbps
Канал(ы) :2 channels
Расположение каналов :Front: L R
Частота :48.0 KHz
Битовая глубина :16 bits
Метод сжатия :Lossy
Размер потока :136 MiB (9%)Тех. данные:
Качество:HDTVRip
Продолжительность:01:38:40 час

ccaf4f1494c3b6f457632541b7d2813e0ae84066Гарри-карманник / Harry in Your Pocket (Брюс Геллер, драма, комедия, криминал, 1978) [HDTVRip, Профессиональный (двухголосый, закадровый)] Гарри-карманник / Harry in Your Pocket (Брюс Геллер, драма, комедия, криминал, 1978) [HDTVRip, Профессиональный (двухголосый, закадровый)] " />

Аплоадер: Админ, дата: 26-08-2013, 15:19, торрент скачан: 359 раз

Понравилась раздача? Посмотрите эти:
  • Все решается в среду / Big Wednesday (Джон Милиус, драма, комедия, спорт, 1 ...
  • Танго ревности / Il tango della gelosia (Энрико Ванцина, Стено, Альдо Де Бе ...
  • Молчаливый партнер / The Silent Partner (Дэрил Дьюк, триллер, драма, кримин ...
  • Одинокие сердца / Lonely Hearts (Пол Кокс, драма, мелодрама, 1975) [HDTVRip ...
  • Моя новая машина / It Takes Two (Дэвид Биэрд, комедия, 1988) [HDTVRip, Проф ...
  • Однажды на матрасе / Once Upon a Mattress (Кэтлин Маршалл, мюзикл, мелодрам ...
  • Обнаженная / Naked (Майк Ли, драма, комедия, 1993) [DVDRip, (2х)Профессиона ...
  • Без имени / Sin nombre (Кэри Фукунага, триллер, драма, криминал, приключени ...
  • Карманник / Pickpocket (Робер Брессон, триллер, драма, криминал, 1959) [DVD ...
  • Кто такой Гарри Крамб? / Whos Harry Crumb? (Пол Флаэрти, Комедия, криминал, ...
  • Если бы у меня был миллион / If I Had a Million (Джеймс Круз, Х. Брюс Хамбе ...
  • Неприятности с Гарри / The Trouble with Harry (Альфред Хичкок, комедия, три ...
  • Тристана / Tristana (Луис Бунюэль, Драма, 1970) [DVDRip, Профессиональный ( ...
  • Квадрофения / Quadrophenia (Фрэнк Роддэм, драма, криминал, музыка, 1979) [H ...
  • Конвейер / Blue Collar (Пол Шредер, драма, криминал, 1977) [DVDRip, Професс ...
  • Семейный доктор / House Calls (Ховард Зифф, драма, мелодрама, комедия, 1978 ...
  • Рай и ад / Tengoku to jigoku (Акира Куросава, триллер, драма, криминал, 196 ...
  • В то же время, в следующем году / Same Time, Next Year (Роберт Маллиган, др ...
  • Джек-потрошитель / Jack the Ripper (2 части из 2) (Дэвид Уикс, триллер, дра ...
  • Калифорнийский отель / California Suite (Херберт Росс, мелодрама, комедия, ...
  • Дьявольское око / Djдvulens цga (Ингмар Бергман, фэнтези, драма, комедия, 1 ...
  • Соседи / Neighbors (Джон Г. Эвилдсен, Комедия, 1981) [HDTVRip, Профессионал ...
  • Убей! / Kiru (Кихачи Окамото, боевик, драма, комедия, 1968) [DVDRip, Профес ...
  • Челюсти 2 / Jaws 2 (Жанно Шварц, ужасы, триллер, 1978) [HDTVRip, Профессион ...
  • Влюбленный гастролер / Sweet talker (Майкл Дженкинс, Комедия, 1991) [DVDRip ...
  • Информация
    Посетители, находящиеся в группе Гости, не могут оставлять комментарии к данной публикации.