вход на сайт

Имя пользователя :
Пароль :

Восстановление пароля Регистрация
Танго ревности / Il tango della gelosia (Энрико Ванцина, Стено, Альдо Де Бенедетти, комедия, 1977) [HDTVRip, Профессиональный (двухголосый закадровый) НТВ+]
Рейтинг:
(голосов: 1)



[img]{THEME}/images/logopost.png[/img]



Танго ревности / Il tango della gelosia

Год выпуска: 1977
Страна: США
Производство: Laser, Ypsilon Cinematografica
Жанр: комедия

Режиссёр: Энрико Ванцина, Стено, Альдо Де Бенедетти
В ролях: Моника Витти, Диего Абатантуоно, Тито Ледюк, Дженни Тамбури, Roberta Lerici, Джанфранко Принципи, Джованни Фебраро, Джулио Массимини, Сальваторе Джаконо, Мартуфелло

Перевод: Профессиональный (двухголосый, закадровый) НТВ+
Субтитры: Отсутствуют

Описание:
После десяти лет брака, Лучия начинает ощущать, что муж ей больше не интересуется. Тогда она решает убедить его, что она ему изменяет…


Дополнительно:
MediaInfo ▼Text
Общее
Полное имя :J:Танго ревностиТанго ревности.avi
Формат :AVI
Размер :1.45 GiB
Продолжительность :01:33:59.000
Общий поток :2 202 Kbps
Программа кодирования :VirtualDubMod 1.5.10.3 | www.virtualdub-fr.org || (build 2550/release)

Видео
Идентификатор :0
Формат :MPEG-4 Visual
Профиль формата :Advanced Simple@L5
Параметр BVOP формата :2
Параметр Qpel формата :No
Параметр GMC формата :0
Параметр Matrix формата :Custom
Идентификатор кодека :XVID
Продолжительность :1h 33mn 59s 0ms
Битрейт :2 000 Kbps
Ширина :720 pixels
Высота :400 pixels
Соотношение сторон :1.800
Частота кадров :25.000 fps
Глубина цвета :8 bits
Подвыборка цветности :4:2:0
Цветовое пространство :YUV
Тип развертки :Progressive
Бит/(Пиксели*Кадры) :0.278
Размер потока :1.31 GiB (91%)
Библиотека кодирования :XviD0050

Аудио #1
Идентификатор :1
Формат :AC-3
Формат/Информация :Audio Coding 3
Идентификатор кодека :2000
Продолжительность :01:33:59.000
Вид битрейта :Constant
Битрейт :192 Kbps
Канал(ы) :2 channels
Расположение каналов :Front: L R
Частота :48.0 KHz
Битовая глубина :16 bits
Метод сжатия :Lossy
Размер потока :129 MiB (9%)



Тех. данные:
Качество:HDTVRip
Продолжительно
240d75f95f96eca3ffc2454e829bd1769562bfd2Танго ревности / Il tango della gelosia (Энрико Ванцина, Стено, Альдо Де Бенедетти, комедия, 1977) [HDTVRip, Профессиональный (двухголосый закадровый) НТВ+] Танго ревности / Il tango della gelosia (Энрико Ванцина, Стено, Альдо Де Бенедетти, комедия, 1977) [HDTVRip, Профессиональный (двухголосый закадровый) НТВ+] " />

Аплоадер: Админ, дата: 28-08-2013, 22:03, торрент скачан: 359 раз

Понравилась раздача? Посмотрите эти:
  • Отдел исполнения наказаний / La polizia ringrazia (Стено, драма, криминал, ...
  • Страх высоты / High Anxiety (Мэл Брукс, триллер, комедия, 1977) [BDRip, Про ...
  • Гарри-карманник / Harry in Your Pocket (Брюс Геллер, драма, комедия, кримин ...
  • Поездка в Америку / Coming to America (Джон Лэндис, драма, мелодрама, комед ...
  • Одинокие сердца / Lonely Hearts (Пол Кокс, драма, мелодрама, 1975) [HDTVRip ...
  • Последнее танго в Париже / Ultimo tango a Parigi (Бернардо Бертолуччи, Драм ...
  • Моя новая машина / It Takes Two (Дэвид Биэрд, комедия, 1988) [HDTVRip, Проф ...
  • Обнаженная / Naked (Майк Ли, драма, комедия, 1993) [DVDRip, (2х)Профессиона ...
  • Пройдоха / I Tartassati (Стено, комедия, 1959) [DVDRip, Профессиональный (м ...
  • Таксистка / Taxi Girl (Мишель Массимо Тарантини, комедия, 1977) [DVDRip, Пр ...
  • Процесс Жанны Д Арк / Proces de Jeanne dArc (Робер Брессон, драма, военный, ...
  • Я стеснительный, но я лечусь / Je suis timide... mais je me soigne (Пьер Ри ...
  • Тристана / Tristana (Луис Бунюэль, Драма, 1970) [DVDRip, Профессиональный ( ...
  • Неверные / Le infedeli (Марио Моничелли, Стено, драма, комедия, 1953) [DVDR ...
  • Нет выхода / No Way Out (Роджер Дональдсон, триллер, драма, детектив, 1987) ...
  • Рай и ад / Tengoku to jigoku (Акира Куросава, триллер, драма, криминал, 196 ...
  • Дьявольское око / Djдvulens цga (Ингмар Бергман, фэнтези, драма, комедия, 1 ...
  • Соседи / Neighbors (Джон Г. Эвилдсен, Комедия, 1981) [HDTVRip, Профессионал ...
  • Убей! / Kiru (Кихачи Окамото, боевик, драма, комедия, 1968) [DVDRip, Профес ...
  • Что навеял ветер / Something in the Wind (Ирвинг Пичел, мюзикл, комедия, 19 ...
  • Информация
    Посетители, находящиеся в группе Гости, не могут оставлять комментарии к данной публикации.