вход на сайт

Имя пользователя :
Пароль :

Восстановление пароля Регистрация
К востоку от рая / East of Eden (Элиа Казан, драма, мелодрама, 1955) [DVDRip, Любительский (одноголосый, закадровый) + оригинал]
Рейтинг:
(голосов: 1)



[img]{THEME}/images/logopost.png[/img]



К востоку от рая / East of Eden

Год выпуска: 1955
Страна: США
Производство: Warner Bros. Pictures
Жанр: драма, мелодрама

Режиссёр: Элиа Казан
В ролях: Джеймс Дин, Рэймонд Мэсси, Берл Айвз, Ричард Давалос, Джо Ван Флит, Альберт Деккер, Лоис Смит, Гарольд Гордон, Ник Дэннис

Перевод: Любительский (одноголосый, закадровый) + оригинал
Субтитры: Отсутствуют

Описание:
Эта картина по праву считается классикой Голливуда и главным фильмом Джеймса Дина — блестящего актера, бунтаря и знаменитости своего времени. Его, еще до окончания съемок, уже прозвали вторым Брандо.

«К востоку от рая» — экранизация знаменитого романа Стейнбека, романа о семейной драме юноши, который ревнует и страдает, видя как его отец отдает незаслуженное предпочтение другому своему сыну — любимцу. И чем сильнее его отчаяние, чем оно безнадежней, — тем сильнее желание обрести забытую родительскую любовь.


Дополнительно:
Рейтинг MPAA: ▼
Рейтинг PG - Рекомендуется присутствие родителей



MediaInfo ▼Text
Общее
Полное имя :K:К востоку от раяK vostoku ot raja.avi
Формат :AVI
Размер :1.37 GiB
Продолжительность :01:49:58.400
Общий поток :1 780 Kbps

Видео
Идентификатор :0
Формат :MPEG-4 Visual
Профиль формата :Advanced [email protected]
Параметр BVOP формата :1
Параметр Qpel формата :No
Параметр GMC формата :0
Параметр Matrix формата :Custom
Идентификатор кодека :XVID
Продолжительность :1h 49mn 58s 400ms
Битрейт :1 510 Kbps
Ширина :704 pixels
Высота :272 pixels
Соотношение сторон :2.588
Частота кадров :25.000 fps
Глубина цвета :8 bits
Подвыборка цветности :4:2:0
Цветовое пространство :YUV
Тип развертки :Progressive
Бит/(Пиксели*Кадры) :0.315
Размер потока :1.16 GiB (85%)
Библиотека кодирования :XviD0046

Аудио #1
Идентификатор :1
Формат :MPEG Audio
Идентификатор кодека :55
Продолжительность :01:49:58.344
Вид битрейта :Constant
Битрейт :128 Kbps
Канал(ы) :2 channels
Частота :48.0 KHz
Метод сжатия :Lossy
Размер потока :101 MiB (7%)
Язык &n
14a6e1d324f5290c4b5944ec4fae9bcec20944cbК востоку от рая / East of Eden (Элиа Казан, драма, мелодрама, 1955) [DVDRip, Любительский (одноголосый, закадровый) + оригинал] К востоку от рая / East of Eden (Элиа Казан, драма, мелодрама, 1955) [DVDRip, Любительский (одноголосый, закадровый) + оригинал] " />

Аплоадер: Админ, дата: 6-09-2013, 21:55, торрент скачан: 359 раз

Понравилась раздача? Посмотрите эти:
  • Сигнальщик / The Signalman (Лоуренс Гордон Кларк, короткометражка, ужасы, ...
  • Пленники болот / Lure of the Wilderness (Жан Негулеско, драма, мелодрама, п ...
  • Одинокая женщина / Kobieta samotna (Агнешка Холланд, драма, 1981) [DVDRip, ...
  • Трамвай «Желание» / A Streetcar Named Desire (Элиа Казан, драма, мелодрама, ...
  • Дымовой сигнал / Smoke Signal (Джерри Хоппер, боевик, драма, вестерн, 1955) ...
  • К востоку от рая / East of Eden (Элиа Казан, драма, 1955) [DVDRip, Професси ...
  • Джентельменское соглашение / Gentlemans Agreement (Элиа Казан, драма, мелод ...
  • Выбор Софи / Sophies Choice (Алан Дж. Пакула, Драма, мелодрама, 1982) [DVDR ...
  • След кота (Уильям А. Уэллмен, драма, вестерн, 1954) [DVDRip, Любительский ( ...
  • В порту / On the waterfront (Элиа Казан /Elia Kazan, мелодрама, драма, крим ...
  • Преждевременное погребение / Premature Burial (Роджер Корман, ужасы, драма, ...
  • Пять недель на воздушном шаре / Five Weeks in a Balloon (Ирвин Аллен, мелод ...
  • Черное солнце: Бойня в Нанкине / Hei tai yang Nan Jing da tu sha (Тун Фей М ...
  • Колено Клер / Le genou de Claire (Эрик Ромер, драма, мелодрама, 1970) [DVDR ...
  • В порту / On the Waterfront (Элиа Казан, драма, криминал, 1954) [DVDRip, Пр ...
  • Земля Фараонов / Land of the Pharaohs (Ховард Хоукс, драма, история, 1955) ...
  • Розенкранц и Гильденштерн мертвы / Rosencrantz & Guildenstern Are Dead (Том ...
  • Калифорнийский отель / California Suite (Херберт Росс, мелодрама, комедия, ...
  • Урок любви / En lektion i karlek (Ингмар Бергман, драма, комедия, 1954) [DV ...
  • Ростовщик / The Pawnbroker (Сидни Люмет, драма, 1964) [DVDRip, Любительский ...
  • Римлянка / La romana (Луиджи Дзампа, драма, 1954) [DVDRip, Любительский (од ...
  • Трамвай «Желание» / A Streetcar Named Desire (Элиа Казан, драма, мелодрама, ...
  • Человек диких прерий / Man in the Wilderness (Ричард С. Сарафьян, приключен ...
  • Эмбрион охотится тайно / Taiji ga mitsuryo suru toki (Кодзи Вакамацу, драма ...
  • Медведи и я / The Bears and I (Бернард МакЭвети, драма, семейный, 1974) [DV ...
  • Информация
    Посетители, находящиеся в группе Гости, не могут оставлять комментарии к данной публикации.