вход на сайт

Имя пользователя :
Пароль :

Восстановление пароля Регистрация
Набережная туманов / Le quai des brumes (Марсель Карне, триллер, драма, мелодрама, криминал, 1938) [DVDRip, Профессиональный (многоголосый, закадровый)]
Рейтинг:
(голосов: 1)



[img]{THEME}/images/logopost.png[/img]



Набережная туманов / Le quai des brumes

Год выпуска: 1938
Страна: Франция
Производство: Cine-Alliance
Жанр: триллер, драма, мелодрама, криминал

Режиссёр: Марсель Карне
В ролях: Жан Габен, Мишель Симон, Мишель Морган, Пьер Брассе, Эдуард Дельмон, Раймон Эмос, Робер Ли Виган, Рене Женен, Марсель Перес, Женни Бюрне

Перевод: Профессиональный (многоголосый, закадровый)
Субтитры: Отсутствуют

Описание:
Солдат колониальных войск Жан приезжает в Гавр, надеясь сесть на корабль и уплыть далеко, далеко — для этого у него есть причины, точно в фильме не указанные. Он знакомится с прекрасной девушкой Нелли и между ними возникает любовь с первого взгляда.

Сильный, сдержанный и немногословный Жан может и хулигана проучить, и вести себя с достоинством и гордостью парижанина. Ему везет — он получает в подарок и гражданскую одежду, и паспорт; корабельный врач предлагает ему место в своей каюте, но пощечины, выданные публично местному молодому бандиту, обусловили печальный конец этой романтической истории.


Дополнительно:
MediaInfo ▼Text
Общее
Полное имя :K:Набережная тумановNaberejnaya tumanov.avi
Формат :AVI
Размер :706 MiB
Продолжительность :01:26:43.600
Общий поток :1 138 Kbps

Видео
Идентификатор :0
Формат :MPEG-4 Visual
Параметр BVOP формата :Yes
Параметр Qpel формата :No
Параметр GMC формата :0
Параметр Matrix формата :Default (H.263)
Идентификатор кодека :DX50
Продолжительность :1h 26mn 43s 600ms
Битрейт :1 000 Kbps
Ширина :576 pixels
Высота :432 pixels
Соотношение сторон :1.333
Частота кадров :25.000 fps
Глубина цвета :8 bits
Подвыборка цветности :4:2:0
Цветовое пространство :YUV
Тип развертки :Progressive
Бит/(Пиксели*Кадры) :0.161
Размер потока :621 MiB (88%)
Библиотека кодирования :DivX503b1328p

Аудио #1
Идентификатор :1
Формат :MPEG Audio
Идентификатор кодека :55
Продолжительность :01:26:43.584
Вид битрейта :Constant
Битрейт :128 Kbps
Канал(ы) :2 channels
Частота :44.1 KHz
Метод сжатия :Lossy
Размер потока :79.4 MiB (11%)



Тех. данные:
Ка
de03a5e95560ec9f0d3b56ac5a17ade08309d372Набережная туманов / Le quai des brumes (Марсель Карне, триллер, драма, мелодрама, криминал, 1938) [DVDRip, Профессиональный (многоголосый, закадровый)] Набережная туманов / Le quai des brumes (Марсель Карне, триллер, драма, мелодрама, криминал, 1938) [DVDRip, Профессиональный (многоголосый, закадровый)] " />

Аплоадер: Админ, дата: 8-09-2013, 15:27, торрент скачан: 359 раз

Понравилась раздача? Посмотрите эти:
  • Вечерние посетители / Les visiteurs du soir (Марсель Карне, фэнтези, драма, ...
  • Иметь и не иметь / To Have and Have Not (Ховард Хоукс, триллер, мелодрама, ...
  • Ко мне, Мухтар! (Семен Туманов, В. Тиунова, драма, 1964) [DVDRip, Не требуе ...
  • Магазинчик за углом / The Shop Around the Corner (Эрнст Любич, драма, мелод ...
  • Обвинённая в 17 / Accused at 17 (Даг Кэмпбелл,триллер, драма, криминал, дет ...
  • Молчание - золото / Le silence est dor (Рене Клер, мелодрама, комедия, 1947 ...
  • Джентельменское соглашение / Gentlemans Agreement (Элиа Казан, драма, мелод ...
  • Карманник / Pickpocket (Робер Брессон, триллер, драма, криминал, 1959) [DVD ...
  • Мой американский дядюшка / Mon oncle dAmerique (Ален Рене, драма, мелодрама ...
  • Процесс Жанны Д Арк / Proces de Jeanne dArc (Робер Брессон, драма, военный, ...
  • Газойль / Gas-oil (Жиль Гранжье, драма, криминал, 1955) [DVDRip, Профессион ...
  • С террасы / From the Terrace (Марк Робсон, драма, мелодрама, 1960) [DVDRip, ...
  • Набережная Орфевр, 36 / 36 Quai des Orfèvres (Оливье Маршаль, боевик, трилл ...
  • Вальсирующие / Les valseuses (Бертран Блие, драма, комедия, криминал, 1966) ...
  • Свидетель обвинения / Witness for the Prosecution (Билли Уайлдер, триллер, ...
  • Укрощение строптивой / The Taming of the Shrew (Франко Дзеффирелли, комедия ...
  • Вдова Кудер / La veuve Couderc (Пьер Гранье-Дефер, боевик, драма, мелодрама ...
  • Дикие дни / A Fei jingjyuhn (Вонг Кар-Вай, драма, мелодрама, криминал, 1990 ...
  • Цепная реакция / Carambolages (Марсель Блюваль, комедия, криминал, 1963) [D ...
  • Человек-зверь / La bete humaine (Жан Ренуар, драма, 1938) [DVDRip, Професси ...
  • Информация
    Посетители, находящиеся в группе Гости, не могут оставлять комментарии к данной публикации.