вход на сайт

Имя пользователя :
Пароль :

Восстановление пароля Регистрация
Выбывший из игры / Odd Man Out (Кэрол Рид, фильм-нуар, триллер, драма, мелодрама, криминал, 1947) [BDRip, Авторский (одноголосый, закадровый) А. Медведев]
Рейтинг:
(голосов: 1)



[img]{THEME}/images/logopost.png[/img]





Выбывший из игры / Odd Man Out

Год выпуска: 1947
Страна: Великобритания
Производство: Two Cities Films Ltd.
Жанр: фильм-нуар, триллер, драма, мелодрама, криминал

Режиссёр: Кэрол Рид
В ролях: Джеймс Мейсон, Роберт Ньютон, Сирил Кьюсак, Питер Джадж, Уильям Хартнелл, Фэй Комптон, Денис О’Ди, У.Г. Фэй, Морин Делани, Elwyn Brook-Jones

Перевод: Авторский (одноголосый, закадровый) А. Медведев
Субтитры: Отсутствуют

Описание:
Раненый лидер ирландских националистов пытается спастись от полиции после неудачного ограбления в Белфасте.


Дополнительно:
MediaInfo ▼Text
Общее
Полное имя :K:Выбывший из игрыOdd Man Out.1947.avi
Формат :AVI
Размер :1.46 GiB
Продолжительность :01:55:55.000
Общий поток :1 799 Kbps
Программа кодирования :VirtualDubMod 1.5.10.3 | www.virtualdub-fr.org || (build 2550/release)
Библиотека кодирования :VirtualDubMod build 2550/release

Видео
Идентификатор :0
Формат :MPEG-4 Visual
Профиль формата :Advanced [email protected]
Параметр BVOP формата :2
Параметр Qpel формата :No
Параметр GMC формата :0
Параметр Matrix формата :Custom
Идентификатор кодека :XVID
Продолжительность :1h 55mn 55s 0ms
Битрейт :1 597 Kbps
Ширина :656 pixels
Высота :480 pixels
Соотношение сторон :1.367
Частота кадров :24.000 fps
Глубина цвета :8 bits
Подвыборка цветности :4:2:0
Цветовое пространство :YUV
Тип развертки :Progressive
Бит/(Пиксели*Кадры) :0.211
Размер потока :1.29 GiB (89%)
Библиотека кодирования :XviD0065

Аудио #1
Идентификатор :1
Формат :AC-3
Формат/Информация :Audio Coding 3
Идентификатор кодека :2000
Продолжительность :01:55:55.000
Вид битрейта :Constant
Битрейт :192 Kbps
Канал(ы) :2 channels
Расположение каналов :Front: L R
Частота :48.0 KHz
Битовая глубина :16 bits
Метод сжатия :Lossy
Размер потока :159 MiB (11%)



Тех. данные:
27d352a1a70ad7c08e1674ef17724a13aff0338bВыбывший из игры / Odd Man Out (Кэрол Рид, фильм-нуар, триллер, драма, мелодрама, криминал, 1947) [BDRip, Авторский (одноголосый, закадровый) А. Медведев] Выбывший из игры / Odd Man Out (Кэрол Рид, фильм-нуар, триллер, драма, мелодрама, криминал, 1947) [BDRip, Авторский (одноголосый, закадровый) А. Медведев] " />

Аплоадер: Админ, дата: 9-09-2013, 19:55, торрент скачан: 359 раз

Понравилась раздача? Посмотрите эти:
  • Лучшие годы нашей жизни / The Best Years of Our Lives (Уильям Уайлер, драма ...
  • Грозовой перевал / Wuthering Heights (Уильям Уайлер, драма, мелодрама, 1939 ...
  • Сингапур / Singapore (Джон Брам, боевик, мелодрама, криминал, приключения, ...
  • Горящие холмы / The Burning Hills (Стюарт Хейслер, мелодрама, вестерн, 1956 ...
  • Гильда / Gilda (Чарльз Видор, фильм-нуар, триллер, драма, мелодрама, 1946) ...
  • Черная полоса / Dark Passage (Дэлмер Дэйвс, фильм-нуар, триллер, 1947) [DVD ...
  • Молчаливый партнер / The Silent Partner (Дэрил Дьюк, триллер, драма, кримин ...
  • Грубая сила / Brute Force (Жюль Дассен, фильм-нуар, триллер, драма, кримина ...
  • Восход солнца / Sunrise: A Song of Two Humans (Фридрих Вильгельм Мурнау, ме ...
  • Лукас / Lucas (Дэвид Зельцер, драма, мелодрама, комедия, 1986) [HDRip, Авто ...
  • Виллоу / Willow (Рон Ховард, фэнтези, боевик, драма, мелодрама, приключения ...
  • Молчание - золото / Le silence est dor (Рене Клер, мелодрама, комедия, 1947 ...
  • Джентельменское соглашение / Gentlemans Agreement (Элиа Казан, драма, мелод ...
  • Выбор Софи / Sophies Choice (Алан Дж. Пакула, Драма, мелодрама, 1982) [DVDR ...
  • Самолетом, поездом, машиной / Planes, Trains & Automobiles (Джон Хьюз, Драм ...
  • Поймет лишь одинокий / Only the Lonely (Крис Коламбус, мелодрама, комедия, ...
  • Морские обезьяны / Umizaru (Эйитиро Хасуми, боевик, драма, 2004) [BDRip, Ав ...
  • Леди из Шанхая / The Lady from Shanghai (Орсон Уэллс, фильм-нуар, триллер, ...
  • Захват поезда Пелэм 1-2-3 / The Taking of Pelham One Two Three (Джозеф Сард ...
  • Преследуемый / Pursued (Рауль Уолш, триллер, вестерн, 1947) [DVDRip, Любите ...
  • Потерянный уик-энд / The Lost weekend (Билли Уайлдер , драма, фильм-нуар, 1 ...
  • Рай и ад / Tengoku to jigoku (Акира Куросава, триллер, драма, криминал, 196 ...
  • Тюремная буря / Gam yuk fung wan (Ринго Лам, боевик, драма, криминал, 1987) ...
  • Синбад-мореход / Sinbad the Sailor (Ричард Уоллес, мелодрама, приключения, ...
  • Чужестранец / The Stranger (Орсон Уэллс, фильм-нуар, триллер, драма, кримин ...
  • Информация
    Посетители, находящиеся в группе Гости, не могут оставлять комментарии к данной публикации.