вход на сайт

Имя пользователя :
Пароль :

Восстановление пароля Регистрация
Эта земля моя / This Land Is Mine (Жан Ренуар, драма, военный, 1943) [DVDRip, Профессиональный (многоголосый, закадровый) ТРК "Петербург" 2006 г.+оригинал]
Рейтинг:
(голосов: 1)



[img]{THEME}/images/logopost.png[/img]





Эта земля моя / This Land Is Mine

Год выпуска: 1943
Страна: США
Производство: Jean-Renoir- Dudly Nichols Productions, RKO Radio Pictures Inc.
Жанр: драма, военный

Режиссёр: Жан Ренуар
В ролях: Чарльз Лотон, Морин О’Хара, Джордж Сэндерс, Вальтер Слезак, Кент Смит, Уна О’Коннор, Филип Меривэйл, Тьюрстон Холл, Джордж Кулурис, Нэнси Гейтс

Перевод: Профессиональный (многоголосый, закадровый) ТРК "Петербург" 2006 г.+оригинал
Субтитры: Отсутствуют

Описание:
Главный герой скромный школьный учитель Альбер Лори «боится бомбежек, любит свою старую мать, свои удобства и свой стакан молока, почитает инспектора учебного округа и оккупационные власти…» и просто отчаянный трус. Но он находит в себе силы перед лицом неминуемой смерти выступить на суде с пламенной речью, обличающей нацизм.


Дополнительно:
MediaInfo ▼Text
Общее
Полное имя :J:1. НОВАЯ РАЗДАЧАЭта земля мояЭта земля моя.avi
Формат :AVI
Размер :1.44 GiB
Продолжительность :01:43:13.229
Общий поток :1 997 Kbps
Программа кодирования :VirtualDubMod 1.5.4.1 (build 2178/release)
Библиотека кодирования :VirtualDubMod build 2178/release

Видео
Идентификатор :0
Формат :MPEG-4 Visual
Профиль формата :Advanced [email protected]
Параметр BVOP формата :2
Параметр Qpel формата :No
Параметр GMC формата :0
Параметр Matrix формата :Default (H.263)
Идентификатор кодека :XVID
Продолжительность :1h 43mn 13s 229ms
Битрейт :1 727 Kbps
Ширина :640 pixels
Высота :480 pixels
Соотношение сторон :1.333
Частота кадров :23.976 fps
Глубина цвета :8 bits
Подвыборка цветности :4:2:0
Цветовое пространство :YUV
Тип развертки :Progressive
Бит/(Пиксели*Кадры) :0.234
Размер потока :1.25 GiB (86%)
Библиотека кодирования :XviD0073

Аудио #1
Идентификатор :1
Формат :MPEG Audio
Идентификатор кодека :55
Продолжительность :01:43:13.224
Вид битрейта :Constant
Битрейт :128 Kbps
Канал(ы) :2 channels
Частота :48.0 KHz
Метод сжатия :Lossy
Размер потока :94.5 MiB (
c7dc7afa5299471f563415a32a067c805ca7af31Эта земля моя / This Land Is Mine (Жан Ренуар, драма, военный, 1943) [DVDRip, Профессиональный (многоголосый, закадровый) ТРК "Петербург" 2006 г.+оригинал] Эта земля моя / This Land Is Mine (Жан Ренуар, драма, военный, 1943) [DVDRip, Профессиональный (многоголосый, закадровый) ТРК "Петербург" 2006 г.+оригинал] " />

Аплоадер: Админ, дата: 24-10-2013, 20:57, торрент скачан: 359 раз

Понравилась раздача? Посмотрите эти:
  • Последний раз, когда я видел Париж / The Last Time I Saw Paris (Ричард Брук ...
  • С другим лицом / Kudrat (Радж Н. Сиппи, драма, мелодрама, комедия, 1998) [D ...
  • Гнев Ахилла / Lira di Achille (Марино Гиролами, боевик, драма, мелодрама, в ...
  • Дневник Гуадалканала / Guadalcanal Diary (Льюис Сейлер, боевик, драма, воен ...
  • Мы – одна команда / We Are Marshall (Джеми Линден, Кори Хелмс, Драма, спорт ...
  • Великая иллюзия / La grande illusion (Жан Ренуар, драма, военный, 1937) [DV ...
  • Вождь краснокожих и другие / O.Henrys Full House (Генри Хэтэуэй, Ховард Хоу ...
  • Лесси возвращается домой / Lassie Come Home (Фред М. Уилкокс, драма, приклю ...
  • Андерграунд / Underground (Эмир Кустурица, драма, комедия, военный, 1995) [ ...
  • С днем рождения, Ванда Джун! / Happy Birthday, Wanda June (Марк Робсон, дра ...
  • Очистить территорию / Away All Boats (Джозеф Пивни, драма, военный, 1956) [ ...
  • Небо и земля / Heaven & Earth (Оливер Стоун, боевик, драма, военный, биогра ...
  • Славный малый (Борис Барнет, военный, 1943) [DVDRip, Не требуется]
  • Тихий Дон (3 части из 3) (Сергей Герасимов, драма, военный, 1957) [DVDRip, ...
  • Чудесное спасение белых скакунов / Miracle of the White Stallions (Артур Хи ...
  • В лесах под Ковелем (3 части из 3) (Юрий Тупицкий, военный, история, 1984) ...
  • Кошка на раскаленной крыше / Cat on a Hot Tin Roof (Ричард Брукс, драма, 19 ...
  • Потопить "Бисмарк" / Sink the Bismarck (Льюис Гилберт, боевик, драма, военн ...
  • Лето с Моникой / Sommaren med Monika (Ингмар Бергман, драма, мелодрама, 195 ...
  • Бог знает, мистер Аллисон / Heaven Knows, Mr. Allison (Джон Хьюстон, боевик ...
  • Иосиф Прекрасный: Наместник фараона / Joseph (2 части из 2) (Роджер Янг, др ...
  • Гигант / Giant (Джордж Стивенс, драма, мелодрама, вестерн, 1956) [DVDRip, П ...
  • Земля Фараонов / Land of the Pharaohs (Ховард Хоукс, драма, история, 1955) ...
  • Расплата кровью / The Man Who Came Back (Глен Питре, боевик, драма, вестерн ...
  • Уик-энд / Week End (Жан-Люк Годар, драма, комедия, 1967) [DVDRip, Профессио ...
  • Информация
    Посетители, находящиеся в группе Гости, не могут оставлять комментарии к данной публикации.