вход на сайт

Имя пользователя :
Пароль :

Восстановление пароля Регистрация
Убийца живет в доме... №21 / Lassassin habite... au 21 (Анри-Жорж Клузо, триллер, комедия, детектив, 1942) [HDRip, Авторский (одноголосый, закадровый) Р. Янкелевич]
Рейтинг:
(голосов: 1)



[img]{THEME}/images/logopost.png[/img]



Убийца живет в доме... №21 / Lassassin habite... au 21

Год выпуска: 1942
Страна: Франция
Производство: Continental Films, Liote
Жанр: триллер, комедия, детектив

Режиссёр: Анри-Жорж Клузо
В ролях: Пьер Френе, Сьюзи Делер, Жан Тиссье, Пьер Ларке, Ноэль Роквер, Рене Женен
, Jean Despeaux, Marc Natol, Югетт Фифир, Одетт Талазак

Перевод: Авторский (одноголосый, закадровый) Р. Янкелевич
Субтитры: Отсутствуют

Описание:
На Монмартре совершено несколько преступлений, подписанных таинственным господином Дюраном. Благодаря информатору комиссар Ван узнает, что убийца живет в пансионе, в доме N 21 по улице Лила. Полицейский, переодевшись пастором, поселяется там…


Дополнительно:
MediaInfo ▼Text
Общее
Полное имя :J:1. НОВАЯ РАЗДАЧАУбийца живет в доме... №21Ubijca zhivet v dome 21.avi
Формат :AVI
Размер :1.46 GiB
Продолжительность :01:22:52.959
Общий поток :2 513 Kbps

Видео
Идентификатор :0
Формат :MPEG-4 Visual
Профиль формата :Advanced [email protected]
Параметр BVOP формата :1
Параметр Qpel формата :No
Параметр GMC формата :0
Параметр Matrix формата :Default (MPEG)
Идентификатор кодека :XVID
Продолжительность :1h 22mn 52s 959ms
Битрейт :2 115 Kbps
Ширина :720 pixels
Высота :544 pixels
Соотношение сторон :1.324
Частота кадров :24.000 fps
Глубина цвета :8 bits
Подвыборка цветности :4:2:0
Цветовое пространство :YUV
Тип развертки :Progressive
Бит/(Пиксели*Кадры) :0.225
Размер потока :1.22 GiB (84%)
Библиотека кодирования :XviD0050

Аудио #1
Идентификатор :1
Формат :AC-3
Формат/Информация :Audio Coding 3
Идентификатор кодека :2000
Продолжительность :01:22:52.959
Вид битрейта :Constant
Битрейт :192 Kbps
Канал(ы) :2 channels
Расположение каналов :Front: L R
Частота :48.0 KHz
Битовая глубина :16 bits
Метод сжатия :Lossy
Размер потока :114 MiB (8%)
Язык  
64ca7161dccb31aec0f3ada371258033a4b5e655Убийца живет в доме... №21 / Lassassin habite... au 21 (Анри-Жорж Клузо, триллер, комедия, детектив, 1942) [HDRip, Авторский (одноголосый, закадровый) Р. Янкелевич] Убийца живет в доме... №21 / Lassassin habite... au 21 (Анри-Жорж Клузо, триллер, комедия, детектив, 1942) [HDRip, Авторский (одноголосый, закадровый) Р. Янкелевич] " />

Аплоадер: Админ, дата: 24-10-2013, 00:44, торрент скачан: 359 раз

Понравилась раздача? Посмотрите эти:
  • Воздыхатель / Le soupirant (Пьер Этекс, комедия, 1962) [DVDRip, Профессиона ...
  • Несколько слишком спокойных господ / Quelques Messieurs Trop Tranquilles (Ж ...
  • Облава на блатных / Razzia sur la chnouf (Анри Декуан, триллер, драма, крим ...
  • Все решается в среду / Big Wednesday (Джон Милиус, драма, комедия, спорт, 1 ...
  • Выбывший из игры / Odd Man Out (Кэрол Рид, фильм-нуар, триллер, драма, мело ...
  • Тонкий человек / The Thin Man (В.С. Ван Дайк, комедия, криминал, детектив, ...
  • Молчаливый партнер / The Silent Partner (Дэрил Дьюк, триллер, драма, кримин ...
  • Лукас / Lucas (Дэвид Зельцер, драма, мелодрама, комедия, 1986) [HDRip, Авто ...
  • Командир / Der Commander (Антонио Маргерити, боевик, военный, 1988) [DVDRip ...
  • Дамы и господа / Signore & signori (Пьетро Джерми, комедия , 1965) [DVDRip, ...
  • А ей ни слова обо мне / Dont Tell Her Its Me (Малкольм Маубрэй, Мелодрама, ...
  • Выходной день Ферриса Бьюлера / Ferris Buellers Day Off (Джон Хьюз, Драма, ...
  • Предместье / The Burbs (Джо Данте, ужасы, триллер, комедия, 1989) [DVDRip, ...
  • Поймет лишь одинокий / Only the Lonely (Крис Коламбус, мелодрама, комедия, ...
  • Путешествие на Луну / Le Voyage dans la Lune (Жорж Мельес, короткометражка, ...
  • Большой начальник (Вождь краснокожих) / Le grand chef (Анри Вернёй, комедия ...
  • Зелиг / Zelig (Вуди Аллен, фэнтези, комедия, 1983) [DVDRip, Авторский (одно ...
  • Кутилы / Les bons vivants (Жиль Гранжье, Жорж Лотнер, драма, комедия, 1965) ...
  • Обезьяна зимой / Un singe en hiver (Анри Вернёй, драма, комедия, 1962) [DVD ...
  • Первый из немногих / История истребителя Спитфайера / The First of the Few ...
  • Скрывающийся в доме / Hider in the House (Мэттью Патрик, триллер, 1989) [DV ...
  • Слежка 2: Снова в засаде / Another Stakeout (Джон Бэдэм, боевик, триллер, к ...
  • Тюремная буря / Gam yuk fung wan (Ринго Лам, боевик, драма, криминал, 1987) ...
  • Суперполицейские из Майами / Miami Supercops (Бруно Корбуччи, боевик, комед ...
  • Домоуправ / The Super (Род Дэниэл, Комедия, 1991) [DVDRip, Авторский (одног ...
  • Информация
    Посетители, находящиеся в группе Гости, не могут оставлять комментарии к данной публикации.