вход на сайт

Имя пользователя :
Пароль :

Восстановление пароля Регистрация
Тайная полиция Италии / Italian Secret Service (Луиджи Коменчини, комедия, 2001) [DVDRip, Любительский (одноголосый, закадровый) Urasiko]
Рейтинг:
(голосов: 1)



[img]{THEME}/images/logopost.png[/img]



Тайная полиция Италии / Italian Secret Service

Год выпуска: 2001
Страна: Франция, Италия
Производство: Rizzoli Film S.p.a.
Жанр: комедия

Режиссёр: Луиджи Коменчини
В ролях: Нино Манфреди, Франсуаз Прево, Клайв Ревилл, Жан Собески, Джампьеро Альбертини, Джорджия Молл, Гастоне Москин, Альваро Пиккарди, Энцо Андронико, Лорис Баццокки

Перевод: Любительский (одноголосый, закадровый) Urasiko
Субтитры: Отсутствуют

Описание:
Лёгкая комедия в стиле "...Итальянцев в России" с упоминанием и посещением России.
Американец, владелец секретной формулы "Кока-Колы" хочет продать её России за 1 доллар. Естественно, это не на руку определённым секретным службам... а начинается история со времён "сопротивления" 2 мировой войны.


Дополнительно:
MediaInfo ▼Text
Общее
Полное имя :J:1. НОВАЯ РАЗДАЧАТайная полиция ИталииItalian Secret Service.avi
Формат :AVI
Размер :1.34 GiB
Продолжительность :01:42:00.040
Общий поток :1 887 Kbps
Программа кодирования :VirtualDubModRus 1.5.10.2 (build 2542/release)
Библиотека кодирования :VirtualDubMod build 2542/release

Видео
Идентификатор :0
Формат :MPEG-4 Visual
Профиль формата :Advanced [email protected]
Параметр BVOP формата :1
Параметр Qpel формата :No
Параметр GMC формата :0
Параметр Matrix формата :Custom
Идентификатор кодека :XVID
Продолжительность :1h 42mn 0s 40ms
Битрейт :1 749 Kbps
Ширина :720 pixels
Высота :400 pixels
Соотношение сторон :1.800
Частота кадров :25.000 fps
Глубина цвета :8 bits
Подвыборка цветности :4:2:0
Цветовое пространство :YUV
Тип развертки :Progressive
Бит/(Пиксели*Кадры) :0.243
Размер потока :1.25 GiB (93%)
Библиотека кодирования :XviD0058

Аудио #1
Идентификатор :1
Формат :MPEG Audio
Идентификатор кодека :55
Продолжительность :01:41:56.921
Вид битрейта :Constant
Битрейт :128 Kbps
Канал(ы) :2 channels
Частота :48.0 KHz
Метод сжатия :Lossy
Размер потока :93.3 MiB (7%)



Тех. данные:
Качество:&n
79b997c5426d04996866a5a8fc88fdb27ea9aa7dТайная полиция Италии / Italian Secret Service (Луиджи Коменчини, комедия, 2001) [DVDRip, Любительский (одноголосый, закадровый) Urasiko] Тайная полиция Италии / Italian Secret Service (Луиджи Коменчини, комедия, 2001) [DVDRip, Любительский (одноголосый, закадровый) Urasiko] " />

Аплоадер: Админ, дата: 22-10-2013, 22:29, торрент скачан: 359 раз

Понравилась раздача? Посмотрите эти:
  • Карлик Нос / Zwerg Nase (Карл-Хайнц Бальс, фэнтези, 1978) [DVDRip, Любитель ...
  • Отдел исполнения наказаний / La polizia ringrazia (Стено, драма, криминал, ...
  • Маркиз дель Грилло / Il Marchese del Grillo (Марио Моничелли, комедия, 1981 ...
  • С тобой меня радует мир / S tebou me bavi svet (Мария Поледнякова, комедия, ...
  • Докторша и полковник / La dottoressa ci sta col colonnello (Мишель Массимо ...
  • Одинокая женщина / Kobieta samotna (Агнешка Холланд, драма, 1981) [DVDRip, ...
  • Довольно сложная девушка / Una ragazza piuttosto complicata (Дамиано Дамиан ...
  • Таксистка / Taxi Girl (Мишель Массимо Тарантини, комедия, 1977) [DVDRip, Пр ...
  • Риф Донована / Donovans Reef (Джон Форд, мелодрама, комедия, 1963) [DVDRip, ...
  • Партизанская эскадрилья / Partizanska eskadrila (Хайрудин Крвавац, драма, в ...
  • (2012) Secret Service / The Lost Box (Disco) [MP3, 320/CBR]
  • След кота (Уильям А. Уэллмен, драма, вестерн, 1954) [DVDRip, Любительский ( ...
  • Путешествие на Луну / Le Voyage dans la Lune (Жорж Мельес, короткометражка, ...
  • Черное солнце: Бойня в Нанкине / Hei tai yang Nan Jing da tu sha (Тун Фей М ...
  • Неверные / Le infedeli (Марио Моничелли, Стено, драма, комедия, 1953) [DVDR ...
  • Кафе–экспресс / Cafe Express (Нанни Лой, комедия, 1980) [DVDRip, Профессион ...
  • Круг чистой воды / Ring of Bright Water (Джек Коуффер, драма, комедия, 1969 ...
  • Отвратительные, грязные, злые / Brutti, sporchi e cattivi (Этторе Скола, др ...
  • Дамы и господа, спокойной ночи! / Signore e signori, buonanotte (Луиджи Ком ...
  • Калифорнийский отель / California Suite (Херберт Росс, мелодрама, комедия, ...
  • Урок любви / En lektion i karlek (Ингмар Бергман, драма, комедия, 1954) [DV ...
  • Ростовщик / The Pawnbroker (Сидни Люмет, драма, 1964) [DVDRip, Любительский ...
  • Римлянка / La romana (Луиджи Дзампа, драма, 1954) [DVDRip, Любительский (од ...
  • Как раздражать людей / How to Irritate People (Йен Фордайсе, комедия, 1969) ...
  • Медведи и я / The Bears and I (Бернард МакЭвети, драма, семейный, 1974) [DV ...
  • Информация
    Посетители, находящиеся в группе Гости, не могут оставлять комментарии к данной публикации.