вход на сайт

Имя пользователя :
Пароль :

Восстановление пароля Регистрация
Заверните мне норку / Make Mine Mink (Роберт Эшер, комедия, 1960) [DVDRip, Профессиональный (многоголосый, закадровый)]
Рейтинг:
(голосов: 1)



[img]{THEME}/images/logopost.png[/img]



Заверните мне норку / Make Mine Mink

Год выпуска: 1960
Страна: Великобритания
Производство: The Rank Organisation Film Productions Ltd.
Жанр: комедия

Режиссёр: Роберт Эшер
В ролях: Терри-Томас, Эфин Сейлер, Хэтти Жак, Элспет Даксбери, Билли Уайтлоу, Джек Хедли, Рэймонд Хантли, Айрин Хэндл, Сидни Тэфлер, Джоан Хил

Перевод: Профессиональный (многоголосый, закадровый)
Субтитры: Отсутствуют

Описание:
Вернувшаяся из мест заключения молодая женщина Лили с трудом нашла себе работу. Ее взяли продавщицей в магазин меховых изделий. Когда из магазина начал исчезать товар, она оказалась под подозрением…


Дополнительно:
MediaInfo ▼Text
Общее
Полное имя :J:1. НОВАЯ РАЗДАЧАЗаверните мне норкуzavernite mne_norku.avi
Формат :AVI
Размер :1.46 GiB
Продолжительность :01:36:51.520
Общий поток :2 159 Kbps
Программа кодирования :VirtualDubMod 1.5.10.2 (build 2540/release)

Видео
Идентификатор :0
Формат :MPEG-4 Visual
Профиль формата :Advanced [email protected]
Параметр BVOP формата :2
Параметр Qpel формата :No
Параметр GMC формата :0
Параметр Matrix формата :Custom
Идентификатор кодека :XVID
Продолжительность :1h 36mn 51s 520ms
Битрейт :1 958 Kbps
Ширина :704 pixels
Высота :528 pixels
Соотношение сторон :1.333
Частота кадров :25.000 fps
Глубина цвета :8 bits
Подвыборка цветности :4:2:0
Цветовое пространство :YUV
Тип развертки :Progressive
Бит/(Пиксели*Кадры) :0.211
Размер потока :1.32 GiB (91%)
Библиотека кодирования :XviD0065

Аудио #1
Идентификатор :1
Формат :AC-3
Формат/Информация :Audio Coding 3
Идентификатор кодека :2000
Продолжительность :01:36:51.488
Вид битрейта :Constant
Битрейт :192 Kbps
Канал(ы) :2 channels
Расположение каналов :Front: L R
Частота :48.0 KHz
Битовая глубина :16 bits
Метод сжатия :Lossy
Размер потока :133 MiB (9%)



Тех. данные:
Качество:DV
3efcbcc54e659f5cca24b1d9b788dde47c6e4048Заверните мне норку / Make Mine Mink (Роберт Эшер, комедия, 1960) [DVDRip, Профессиональный (многоголосый, закадровый)] Заверните мне норку / Make Mine Mink (Роберт Эшер, комедия, 1960) [DVDRip, Профессиональный (многоголосый, закадровый)] " />

Аплоадер: Админ, дата: 30-09-2013, 20:21, торрент скачан: 359 раз

Понравилась раздача? Посмотрите эти:
  • Эта земля моя / This Land Is Mine (Жан Ренуар, драма, военный, 1943) [DVDRi ...
  • Африканец / Lafricain (Филипп де Брока, Комедия, приключения, 1983) [DVDRip ...
  • Похищенный / Kidnapped (Роберт Стивенсон, драма, приключения, семейный, 196 ...
  • Апач / Apache (Роберт Олдрич, вестерн, 1954) [DVDRip, Профессиональный (мно ...
  • Репли-Кейт / Repli-Kate (Фрэнк Лонго, фантастика, комедия, 2002) [DVDRip, П ...
  • Молчание - золото / Le silence est dor (Рене Клер, мелодрама, комедия, 1947 ...
  • Голая правда / The naked truth (Марио Зампи, комедия, 1957) [DVDRip, Профес ...
  • С террасы / From the Terrace (Марк Робсон, драма, мелодрама, 1960) [DVDRip, ...
  • Постоялый двор шестой степени счастья / The Inn of the Sixth Happiness (Мар ...
  • Давайте делать деньги / Lets Make Money (Документальный, 2008) [DVDRip, Про ...
  • Потопить "Бисмарк" / Sink the Bismarck (Льюис Гилберт, боевик, драма, военн ...
  • Афера / The Sting (Джордж Рой Хилл, комедия, криминал, 1973) [DVDRip, Профе ...
  • Второй трагический Фантоцци / Il secondo tragico Fantozzi (Лучано Сальче, к ...
  • Мы поедем в Дювиль / Nous irons a Deauville (Френсис Риго, комедия, 1962) [ ...
  • К северу от Аляски / North to Alaska (Генри Хэтэуэй, вестерн, комедия, 1960 ...
  • Мой дядюшка / Mon oncle (Жак Тати, комедия, 1958) [DVDRip, Профессиональный ...
  • Дьявольское око / Djдvulens цga (Ингмар Бергман, фэнтези, драма, комедия, 1 ...
  • Повышение / The Promotion (Стив Конрад, Комедия, 2008) [DVDRip, Профессиона ...
  • Уик-энд / Week End (Жан-Люк Годар, драма, комедия, 1967) [DVDRip, Профессио ...
  • Бессмертная тетушка / Nesmrtelna teta (Зденек Зеленка, комедия, 1993) [DVDR ...
  • Информация
    Посетители, находящиеся в группе Гости, не могут оставлять комментарии к данной публикации.