вход на сайт

Имя пользователя :
Пароль :

Восстановление пароля Регистрация
Вечерние посетители / Les visiteurs du soir (Марсель Карне, фэнтези, драма, мелодрама, 1942) [DVDRip, Профессиональный (многоголосый, закадровый) ОРТ + оригинал]
Рейтинг:
(голосов: 1)



[img]{THEME}/images/logopost.png[/img]



Вечерние посетители / Les visiteurs du soir

Год выпуска: 1942
Страна: Франция
Производство: Productions Andre Paulve
Жанр: фэнтези, драма, мелодрама

Режиссёр: Марсель Карне
В ролях: Арлетти, Мари Деа, Фернан Леду, Ален Кюни
,
Пьер Лабри, Жан д’Ид, Роже Блен, Габриэль Габрио, Марсель Эрран, Жюль Берри

Перевод: Профессиональный (многоголосый, закадровый) ОРТ + оригинал
Субтитры: Отсутствуют

Описание:
На исходе XV века, то есть в самый разгар французского Ренессанса, в замок богатого вдовца наезжают два менестреля, Жиль и Доминик. По тем временам скучающие сеньоры радовались любым гостям, а уж менестрелям и подавно.


Дополнительно:
MediaInfo ▼Text
Общее
Полное имя :M:Вечерние посетителиВечерние посетителиVechernie.posetiteli.1942.avi
Формат :AVI
Размер :1.46 GiB
Продолжительность :01:55:57.400
Общий поток :1 798 Kbps
Программа кодирования :VirtualDubModRus 1.5.10.2 (build 2540/release)

Видео
Идентификатор :0
Формат :MPEG-4 Visual
Профиль формата :Advanced [email protected]
Параметр BVOP формата :2
Параметр Qpel формата :No
Параметр GMC формата :0
Параметр Matrix формата :Default (H.263)
Идентификатор кодека :XVID
Продолжительность :1h 55mn 57s 400ms
Битрейт :1 528 Kbps
Ширина :656 pixels
Высота :480 pixels
Соотношение сторон :1.367
Частота кадров :25.000 fps
Глубина цвета :8 bits
Подвыборка цветности :4:2:0
Цветовое пространство :YUV
Тип развертки :Progressive
Бит/(Пиксели*Кадры) :0.194
Размер потока :1.24 GiB (85%)
Библиотека кодирования :XviD0050

Аудио #1
Идентификатор :1
Формат :MPEG Audio
Идентификатор кодека :55
Продолжительность :01:55:57.288
Вид битрейта :Constant
Битрейт :128 Kbps
Канал(ы) :2 channels
Частота :48.0 KHz
Метод сжатия :Lossy
Размер потока :106 MiB (7%)

Аудио #2
Идентификатор :2
Формат :MPEG Audio
Идентификатор кодека
8833577df4be65f0d8c2e1aa77a6702a3c60398cВечерние посетители / Les visiteurs du soir (Марсель Карне, фэнтези, драма, мелодрама, 1942) [DVDRip, Профессиональный (многоголосый, закадровый) ОРТ + оригинал] Вечерние посетители / Les visiteurs du soir (Марсель Карне, фэнтези, драма, мелодрама, 1942) [DVDRip, Профессиональный (многоголосый, закадровый) ОРТ + оригинал] " />

Аплоадер: Админ, дата: 20-09-2013, 19:18, торрент скачан: 359 раз

Понравилась раздача? Посмотрите эти:
  • Набережная туманов / Le quai des brumes (Марсель Карне, триллер, драма, мел ...
  • Иметь и не иметь / To Have and Have Not (Ховард Хоукс, триллер, мелодрама, ...
  • Поездка в Америку / Coming to America (Джон Лэндис, драма, мелодрама, комед ...
  • Бой под Соколом (Александр Разумный, военный, 1942) [DVDRip, Не требуется]
  • Вечерние посетители / Les visiteurs du soir (Марсель Карне, фэнтези, драма, ...
  • Джентельменское соглашение / Gentlemans Agreement (Элиа Казан, драма, мелод ...
  • Мой американский дядюшка / Mon oncle dAmerique (Ален Рене, драма, мелодрама ...
  • Процесс Жанны Д Арк / Proces de Jeanne dArc (Робер Брессон, драма, военный, ...
  • Газойль / Gas-oil (Жиль Гранжье, драма, криминал, 1955) [DVDRip, Профессион ...
  • Риф Донована / Donovans Reef (Джон Форд, мелодрама, комедия, 1963) [DVDRip, ...
  • С террасы / From the Terrace (Марк Робсон, драма, мелодрама, 1960) [DVDRip, ...
  • Сердце и души / Heart and Souls (Рон Андервуд, фэнтези, драма, мелодрама, к ...
  • Таинственный остров / Остров приключений / Mysterious Island (Сай Эндфилд, ...
  • Любовники / Les amants (Луи Малль, драма, 1958) [DVDRip, Профессиональный ( ...
  • Жить, чтобы жить / Vivre Pour Vivre (Клод Лелуш, драма, 1967) [DVDRip, Проф ...
  • Лето с Моникой / Sommaren med Monika (Ингмар Бергман, драма, мелодрама, 195 ...
  • Ночная Маргарита / Marguerite de la nuit (Клод Отан-Лара, фэнтези, драма, 1 ...
  • Уик-энд / Week End (Жан-Люк Годар, драма, комедия, 1967) [DVDRip, Профессио ...
  • Улица Прери / Rue des Prairies (Дени де Ла Пательер, драма, 1959) [DVDRip, ...
  • Цепная реакция / Carambolages (Марсель Блюваль, комедия, криминал, 1963) [D ...
  • Информация
    Посетители, находящиеся в группе Гости, не могут оставлять комментарии к данной публикации.