вход на сайт

Имя пользователя :
Пароль :

Восстановление пароля Регистрация
Медведи и я / The Bears and I (Бернард МакЭвети, драма, семейный, 1974) [DVDRip, Любительский (одноголосый, закадровый)+оригинал]
Рейтинг:
(голосов: 1)



[img]{THEME}/images/logopost.png[/img]



Медведи и я / The Bears and I

Год выпуска: 1974
Страна: США
Производство: Walt Disney Productions
Жанр: драма, семейный

Режиссёр: Бернард МакЭвети
В ролях: Патрик Уэйн, Вождь Дэн Джордж, Эндрю Дагган, Майкл Ансара, Роберт Пайн, Валентин Де Варгас, Хэл Бэйлор

Перевод: Любительский (одноголосый, закадровый)+оригинал
Субтитры: Отсутствуют

Описание:
Когда человек "усыновляет" трёх осиротевших медвежат, он сталкивается с одним из трудных решений в жизни...


Дополнительно:
MediaInfo ▼Text
Общее
Полное имя :D:. РАЗДАЧАМедведи и яBears & I_1974.avi
Формат :AVI
Размер :1.42 GiB
Продолжительность :01:28:37.152
Общий поток :2 297 Kbps
Программа кодирования :VirtualDubMod 1.5.10.2 (build 2542/release)
Библиотека кодирования :VirtualDubMod build 2542/release

Видео
Идентификатор :0
Формат :MPEG-4 Visual
Параметр BVOP формата :1
Параметр Qpel формата :No
Параметр GMC формата :0
Параметр Matrix формата :Default (H.263)
Идентификатор кодека :DX50
Продолжительность :1h 28mn 37s 145ms
Битрейт :1 899 Kbps
Ширина :720 pixels
Высота :544 pixels
Соотношение сторон :1.324
Частота кадров :23.976 fps
Глубина цвета :8 bits
Подвыборка цветности :4:2:0
Цветовое пространство :YUV
Тип развертки :Progressive
Бит/(Пиксели*Кадры) :0.202
Размер потока :1.18 GiB (83%)
Библиотека кодирования :DivX503b2816p

Аудио #1
Идентификатор :1
Формат :MPEG Audio
Идентификатор кодека :55
Продолжительность :01:28:37.152
Вид битрейта :Constant
Битрейт :192 Kbps
Канал(ы) :2 channels
Частота :48.0 KHz
Метод сжатия :Lossy
Размер потока :122 MiB (8%)

Аудио #2
Идентификатор :2
Формат :AC-3
Формат/Информация :Audio Coding 3
Идентификатор кодека :2000
Продолжительность :01:28:37.120
Вид битрейта &nb
c23faa5fffa3825eb84091bbd4288863b2f2ac87Медведи и я / The Bears and I (Бернард МакЭвети, драма, семейный, 1974) [DVDRip, Любительский (одноголосый, закадровый)+оригинал] Медведи и я / The Bears and I (Бернард МакЭвети, драма, семейный, 1974) [DVDRip, Любительский (одноголосый, закадровый)+оригинал] " />

Аплоадер: Админ, дата: 6-12-2012, 20:48, торрент скачан: 359 раз

Понравилась раздача? Посмотрите эти:
  • Карлик Нос / Zwerg Nase (Карл-Хайнц Бальс, фэнтези, 1978) [DVDRip, Любитель ...
  • Сигнальщик / The Signalman (Лоуренс Гордон Кларк, короткометражка, ужасы, ...
  • Пленники болот / Lure of the Wilderness (Жан Негулеско, драма, мелодрама, п ...
  • Отдел исполнения наказаний / La polizia ringrazia (Стено, драма, криминал, ...
  • Ботинок по имени Мелихар / Bota Jmenem Melichar (Зденек Трошка, семейный, 1 ...
  • С тобой меня радует мир / S tebou me bavi svet (Мария Поледнякова, комедия, ...
  • Энн из Зеленых крыш / Anne of Green Gables (Кевин Салливан, драма, семейный ...
  • Одинокая женщина / Kobieta samotna (Агнешка Холланд, драма, 1981) [DVDRip, ...
  • Свидетель обвинения / Witness for the Prosecution (Билли Уайлдер, драма, де ...
  • Партизанская эскадрилья / Partizanska eskadrila (Хайрудин Крвавац, драма, в ...
  • Румбурак / Rumburak (Вацлав Ворличек, семейный, 1985) [DVDRip, Любительский ...
  • След кота (Уильям А. Уэллмен, драма, вестерн, 1954) [DVDRip, Любительский ( ...
  • Преждевременное погребение / Premature Burial (Роджер Корман, ужасы, драма, ...
  • Лиловая равнина / The Purple Plain (Роберт Пэрриш, боевик, драма, приключен ...
  • Земля Фараонов / Land of the Pharaohs (Ховард Хоукс, драма, история, 1955) ...
  • Нет мира под оливами / Non ce pace tra gli ulivi (Джузеппе де Сантис, драма ...
  • Плохие спят спокойно / Warui yatsu hodo yoku nemuru (Акира Куросава, трилле ...
  • Остров сокровищ / Treasure Island (Байрон Хэскин, приключения, семейный, 19 ...
  • Розенкранц и Гильденштерн мертвы / Rosencrantz & Guildenstern Are Dead (Том ...
  • Урок любви / En lektion i karlek (Ингмар Бергман, драма, комедия, 1954) [DV ...
  • Ростовщик / The Pawnbroker (Сидни Люмет, драма, 1964) [DVDRip, Любительский ...
  • На хуторе у леса / Na samote u lesa (Иржи Менцель, драма, комедия, семейный ...
  • Римлянка / La romana (Луиджи Дзампа, драма, 1954) [DVDRip, Любительский (од ...
  • Как раздражать людей / How to Irritate People (Йен Фордайсе, комедия, 1969) ...
  • Человек диких прерий / Man in the Wilderness (Ричард С. Сарафьян, приключен ...
  • Информация
    Посетители, находящиеся в группе Гости, не могут оставлять комментарии к данной публикации.