вход на сайт

Имя пользователя :
Пароль :

Восстановление пароля Регистрация
Эмбрион охотится тайно / Taiji ga mitsuryo suru toki (Кодзи Вакамацу, драма, 1966) [DVDRip, Любительский (одноголосый, закадровый)]
Рейтинг:
(голосов: 1)



[img]{THEME}/images/logopost.png[/img]



Эмбрион охотится тайно / Taiji ga mitsuryo suru toki

Год выпуска: 1966
Страна: Япония
Производство: Wakamatsu Production
Жанр: драма

Режиссёр: Кодзи Вакамацу
В ролях: Хатсуо Яматани, Miharu Shima

Перевод: Любительский (одноголосый, закадровый)
Субтитры: Отсутствуют

Описание:
Некий мужчина приводит домой некую женщину, запирает ее и начинает истязать, время от времени занимаясь с ней сексом. Постепенно выясняется, что мужчина страдает от кучи комплексов, связанных с матерью и бывшей женой.


Дополнительно:
MediaInfo ▼Text
Общее
Полное имя :K:РАЗДАЧАЭмбрион охотится тайноЭмбрион охотится тайно he_embryo.avi
Формат :AVI
Размер :799 MiB
Продолжительность :01:12:58.741
Общий поток :1 531 Kbps
Библиотека кодирования :VirtualDub build 14279/release

Видео
Идентификатор :0
Формат :MPEG-4 Visual
Профиль формата :Advanced [email protected]
Параметр BVOP формата :2
Параметр Qpel формата :No
Параметр GMC формата :0
Параметр Matrix формата :Default (H.263)
Идентификатор кодека :XVID
Продолжительность :1h 12mn 58s 741ms
Битрейт :1 199 Kbps
Ширина :660 pixels
Высота :320 pixels
Соотношение сторон :2.063
Частота кадров :29.970 fps
Глубина цвета :8 bits
Подвыборка цветности :4:2:0
Цветовое пространство :YUV
Тип развертки :Progressive
Бит/(Пиксели*Кадры) :0.189
Размер потока :626 MiB (78%)
Библиотека кодирования :XviD0040

Аудио #1
Идентификатор :1
Формат :MPEG Audio
Идентификатор кодека :55
Продолжительность :01:12:58.656
Вид битрейта :Constant
Битрейт :320 Kbps
Канал(ы) :2 channels
Частота :48.0 KHz
Метод сжатия :Lossy
Размер потока :167 MiB (21%)Тех. данные:
Качество:DVDRip
Продолжительность:01:12:51 час

Формат: AVI
Видео кодек: XviD
Аудио кодек: MPA1L3
Видео: 660 x 320 (2.063), 29.970 fps, 1 199 Kbps, 0.189 bit/pixel
Аудио : 48.0 KHz, , 2 channels (), 320 Kbps



aa31bbbf269aeede2324b91a827873f649ad65e7Эмбрион охотится тайно / Taiji ga mitsuryo suru toki (Кодзи Вакамацу, драма, 1966) [DVDRip, Любительский (одноголосый, закадровый)] Эмбрион охотится тайно / Taiji ga mitsuryo suru toki (Кодзи Вакамацу, драма, 1966) [DVDRip, Любительский (одноголосый, закадровый)] " />

Аплоадер: Админ, дата: 16-11-2012, 01:31, торрент скачан: 359 раз

Понравилась раздача? Посмотрите эти:
  • Карлик Нос / Zwerg Nase (Карл-Хайнц Бальс, фэнтези, 1978) [DVDRip, Любитель ...
  • Сигнальщик / The Signalman (Лоуренс Гордон Кларк, короткометражка, ужасы, ...
  • Пленники болот / Lure of the Wilderness (Жан Негулеско, драма, мелодрама, п ...
  • Отдел исполнения наказаний / La polizia ringrazia (Стено, драма, криминал, ...
  • К востоку от рая / East of Eden (Элиа Казан, драма, мелодрама, 1955) [DVDRi ...
  • Одинокая женщина / Kobieta samotna (Агнешка Холланд, драма, 1981) [DVDRip, ...
  • Свидетель обвинения / Witness for the Prosecution (Билли Уайлдер, драма, де ...
  • Партизанская эскадрилья / Partizanska eskadrila (Хайрудин Крвавац, драма, в ...
  • След кота (Уильям А. Уэллмен, драма, вестерн, 1954) [DVDRip, Любительский ( ...
  • Преждевременное погребение / Premature Burial (Роджер Корман, ужасы, драма, ...
  • Вальсирующие / Les valseuses (Бертран Блие, драма, комедия, криминал, 1966) ...
  • Черное солнце: Бойня в Нанкине / Hei tai yang Nan Jing da tu sha (Тун Фей М ...
  • Нет мира под оливами / Non ce pace tra gli ulivi (Джузеппе де Сантис, драма ...
  • Сдавайся и расплатись / La resa dei conti (Серджо Соллима, вестерн, 1966) [ ...
  • Урок любви / En lektion i karlek (Ингмар Бергман, драма, комедия, 1954) [DV ...
  • Ростовщик / The Pawnbroker (Сидни Люмет, драма, 1964) [DVDRip, Любительский ...
  • Римлянка / La romana (Луиджи Дзампа, драма, 1954) [DVDRip, Любительский (од ...
  • Как раздражать людей / How to Irritate People (Йен Фордайсе, комедия, 1969) ...
  • Человек диких прерий / Man in the Wilderness (Ричард С. Сарафьян, приключен ...
  • Медведи и я / The Bears and I (Бернард МакЭвети, драма, семейный, 1974) [DV ...
  • Информация
    Посетители, находящиеся в группе Гости, не могут оставлять комментарии к данной публикации.