вход на сайт

Имя пользователя :
Пароль :

Восстановление пароля Регистрация
Человек диких прерий / Man in the Wilderness (Ричард С. Сарафьян, приключения, вестерн, 1971) [DVDRip, Любительский (одноголосый, закадровый)]
Рейтинг:
(голосов: 1)



[img]{THEME}/images/logopost.png[/img]



Человек диких прерий / Man in the Wilderness

Год выпуска: 1971
Страна: США
Производство: Limbridge, Wilderness Films
Жанр: приключения, вестерн

Режиссёр: Ричард С. Сарафьян
В ролях: Ричард Харрис, Джон Хьюстон, Перси Херберт, Генри Уилкоксон, Шила Рейнор, Норман Россингтон, Брайан Маршалл

Перевод: Любительский (одноголосый, закадровый)
Субтитры: Отсутствуют

Описание:
Фильм о проводнике группы пионеров, изучавших северо-запад Соединенных Штатов в 1820 году. Проводник был ранен медведем и оставлен компаньонами умирать. Он смог достаточно оправиться, чтобы выследить своих прежних товарищей…


Дополнительно:
Рейтинг MPAA: ▼
Рейтинг PG - Рекомендуется присутствие родителей



MediaInfo ▼Text
Общее
Полное имя :D:РаздачаЧеловек диких прерийchelovek_dikih_preriy.avi
Формат :AVI
Размер :1.37 GiB
Продолжительность :01:40:45.120
Общий поток :1 943 Kbps
Программа кодирования :VirtualDubMod 1.5.4.1 (build 2178/release)
Библиотека кодирования :VirtualDubMod build 2178/release

Видео
Идентификатор :0
Формат :MPEG-4 Visual
Параметр BVOP формата :1
Параметр Qpel формата :No
Параметр GMC формата :0
Параметр Matrix формата :Default (H.263)
Идентификатор кодека :DX50
Продолжительность :1h 40mn 45s 120ms
Битрейт :1 744 Kbps
Ширина :640 pixels
Высота :256 pixels
Соотношение сторон :2.500
Частота кадров :25.000 fps
Глубина цвета :8 bits
Подвыборка цветности :4:2:0
Цветовое пространство :YUV
Тип развертки :Progressive
Бит/(Пиксели*Кадры) :0.426
Размер потока :1.23 GiB (90%)
Библиотека кодирования :DivX503b2306p

Аудио #1
Идентификатор :1
Формат :MPEG Audio
Идентификатор кодека :55
Продолжительность :01:40:44.688
Вид битрейта :Constant
Битрейт :192 Kbps
Канал(ы) :2 channels
Частота :48.0 KHz
Метод сжатия :Lossy
Размер потока :138 MiB (10%)
Язык :RussianТех. данные:
Качество:DVDRip
Продолжительность:&
1b754a0f49dde87c1b04df0c196e599fbd88123aЧеловек диких прерий / Man in the Wilderness (Ричард С. Сарафьян, приключения, вестерн, 1971) [DVDRip, Любительский (одноголосый, закадровый)] Человек диких прерий / Man in the Wilderness (Ричард С. Сарафьян, приключения, вестерн, 1971) [DVDRip, Любительский (одноголосый, закадровый)] " />

Аплоадер: Админ, дата: 13-11-2012, 21:48, торрент скачан: 359 раз

Понравилась раздача? Посмотрите эти:
  • Сингапур / Singapore (Джон Брам, боевик, мелодрама, криминал, приключения, ...
  • Пленники болот / Lure of the Wilderness (Жан Негулеско, драма, мелодрама, п ...
  • МакКейб и миссис Миллер / McCabe & Mrs. Miller (Роберт Олтмен, драма, весте ...
  • Даурия (2 части из 2) (Виктор Трегубович, боевик, драма, мелодрама, приключ ...
  • Дымовой сигнал / Smoke Signal (Джерри Хоппер, боевик, драма, вестерн, 1955) ...
  • Привет вам от гориллы / Le gorille vous salue bien (Бернар Бордери, боевик, ...
  • Золотые копи / La Collina degli stivali (Джузеппе Колицци, комедия, вестерн ...
  • Наперегонки с Луной / Racing with the Moon (Ричард Бенджамин, Драма, мелодр ...
  • Румбурак / Rumburak (Вацлав Ворличек, семейный, 1985) [DVDRip, Любительский ...
  • След кота (Уильям А. Уэллмен, драма, вестерн, 1954) [DVDRip, Любительский ( ...
  • Стрелок / Triggеrman (Джулио Базе, Теренс Хилл / Giulio Base, Terence Hill ...
  • Дуэль / Duel (Стивен Спилберг, триллер, детектив, 1971) [DVDRip, Профессион ...
  • Пять недель на воздушном шаре / Five Weeks in a Balloon (Ирвин Аллен, мелод ...
  • Бог знает, мистер Аллисон / Heaven Knows, Mr. Allison (Джон Хьюстон, боевик ...
  • Остров сокровищ / Treasure Island (Байрон Хэскин, приключения, семейный, 19 ...
  • Преследуемый / Pursued (Рауль Уолш, триллер, вестерн, 1947) [DVDRip, Любите ...
  • Розенкранц и Гильденштерн мертвы / Rosencrantz & Guildenstern Are Dead (Том ...
  • Сдавайся и расплатись / La resa dei conti (Серджо Соллима, вестерн, 1966) [ ...
  • Калифорнийский отель / California Suite (Херберт Росс, мелодрама, комедия, ...
  • Урок любви / En lektion i karlek (Ингмар Бергман, драма, комедия, 1954) [DV ...
  • Расплата кровью / The Man Who Came Back (Глен Питре, боевик, драма, вестерн ...
  • Чёрный корсар / Il corsaro nero (Лоренцо Джикка Палли, боевик, комедия, при ...
  • Как раздражать людей / How to Irritate People (Йен Фордайсе, комедия, 1969) ...
  • Человек с Востока / E poi lo chiamarono il magnifico (Энцо Барбони, боевик, ...
  • Медведи и я / The Bears and I (Бернард МакЭвети, драма, семейный, 1974) [DV ...
  • Информация
    Посетители, находящиеся в группе Гости, не могут оставлять комментарии к данной публикации.