вход на сайт

Имя пользователя :
Пароль :

Восстановление пароля Регистрация
Харакири / Seppuku (Масаки Кобаяси, драма, 1962) [DVDRip, Профессиональный (многоголосый, закадровый)+оригинал, Субтитры: Rus., Eng.]
Рейтинг:
(голосов: 1)



[img]{THEME}/images/logopost.png[/img]



Харакири / Seppuku

Год выпуска: 1962
Страна: Япония
Производство: Shochiku Films Ltd.
Жанр: драма

Режиссёр: Масаки Кобаяси
В ролях: Тацуя Накадаи, Рэнтаро Микуни, Шима Ивашита, Акира Ишихама, Йошио Аоки, Джо Адзуми, Хисаси Игава, Ёсио Инаба, Акидзи Кобаяси

Перевод: Профессиональный (многоголосый, закадровый)+оригинал
Субтитры: Русские, английские

Описание:
После распада своего клана, безработный самурай Ханширо Тсугумо прибыл в поместье лорда Ию, с просьбой совершить сэппуку в его имении.

Члены клана Ию, полагая что отчаявшийся ронин просто уповает на милостыню, пытаются заставить его совершить харакири, но они его сильно недооценивают.


Дополнительно:
MediaInfo ▼Text
Общее
Полное имя :L:РАЗДАЧАХаракириharakiriharakiri.avi
Формат :AVI
Размер :1.42 GiB
Продолжительность :02:12:40.828
Общий поток :1 531 Kbps
Программа кодирования :VirtualDubMod 1.5.10.2 (build 2542/release)
Библиотека кодирования :VirtualDubMod build 2542/release

Видео
Идентификатор :0
Формат :MPEG-4 Visual
Профиль формата :Advanced [email protected]
Параметр BVOP формата :2
Параметр Qpel формата :No
Параметр GMC формата :0
Параметр Matrix формата :Default (MPEG)
Идентификатор кодека :DX50
Продолжительность :2h 12mn 40s 828ms
Битрейт :1 255 Kbps
Ширина :704 pixels
Высота :304 pixels
Соотношение сторон :2.316
Частота кадров :23.976 fps
Глубина цвета :8 bits
Подвыборка цветности :4:2:0
Цветовое пространство :YUV
Тип развертки :Progressive
Бит/(Пиксели*Кадры) :0.245
Размер потока :1.16 GiB (82%)
Библиотека кодирования :XviD0045

Аудио #1
Идентификатор :1
Формат :MPEG Audio
Идентификатор кодека :55
Продолжительность :02:12:40.817
Вид битрейта :Variable
Битрейт :128 Kbps
Канал(ы) :2 channels
Частота :44.1 KHz
Метод сжатия :Lossy
Размер потока :122 MiB (8%)

Аудио #2
Идентификатор :2
Формат &nbs
aed98f035606bb970e0c86555f648376cbb72e74Харакири / Seppuku (Масаки Кобаяси, драма, 1962) [DVDRip, Профессиональный (многоголосый, закадровый)+оригинал, Субтитры: Rus., Eng.] Харакири / Seppuku (Масаки Кобаяси, драма, 1962) [DVDRip, Профессиональный (многоголосый, закадровый)+оригинал, Субтитры: Rus., Eng.] " />

Аплоадер: Админ, дата: 13-11-2012, 21:24, торрент скачан: 359 раз

Понравилась раздача? Посмотрите эти:
  • Воздыхатель / Le soupirant (Пьер Этекс, комедия, 1962) [DVDRip, Профессиона ...
  • Привидения по-итальянски / Questi fantasmi (Ренато Кастеллани, фэнтези, ком ...
  • Харакири / Seppuku (Масаки Кобаяси, драма 1962) [BDRip 720p, Профессиональн ...
  • Гнев Ахилла / Lira di Achille (Марино Гиролами, боевик, драма, мелодрама, в ...
  • Сицилийский клан / Le clan des Siciliens (Анри Вернёй, драма, криминал, 196 ...
  • Процесс Жанны Д Арк / Proces de Jeanne dArc (Робер Брессон, драма, военный, ...
  • Удар головой / Coup de tete (Жан-Жак Анно, драма, комедия, спорт, 1978) [DV ...
  • Преждевременное погребение / Premature Burial (Роджер Корман, ужасы, драма, ...
  • Кошка на раскаленной крыше / Cat on a Hot Tin Roof (Ричард Брукс, драма, 19 ...
  • Любовники / Les amants (Луи Малль, драма, 1958) [DVDRip, Профессиональный ( ...
  • Жить, чтобы жить / Vivre Pour Vivre (Клод Лелуш, драма, 1967) [DVDRip, Проф ...
  • Ад для героев / Hell Is for Heroes (Дон Сигел, боевик, драма, военный, 1962 ...
  • Лето с Моникой / Sommaren med Monika (Ингмар Бергман, драма, мелодрама, 195 ...
  • Мы поедем в Дювиль / Nous irons a Deauville (Френсис Риго, комедия, 1962) [ ...
  • Собачий мир / Mondo cane (Паоло Кавара, Гуалтьеро Якопетти, Франко Проспери ...
  • Телохранитель 2: Отважный Сандзюро / Tsubaki Sanjuro (Акира Куросава, боеви ...
  • Уик-энд / Week End (Жан-Люк Годар, драма, комедия, 1967) [DVDRip, Профессио ...
  • Улица Прери / Rue des Prairies (Дени де Ла Пательер, драма, 1959) [DVDRip, ...
  • Убей! / Kiru (Кихачи Окамото, боевик, драма, комедия, 1968) [DVDRip, Профес ...
  • Медведи и я / The Bears and I (Бернард МакЭвети, драма, семейный, 1974) [DV ...
  • Информация
    Посетители, находящиеся в группе Гости, не могут оставлять комментарии к данной публикации.