вход на сайт

Имя пользователя :
Пароль :

Восстановление пароля Регистрация
Хад / Hud (Мартин Ритт, драма, 1963) [DVDRip, Профессиональный (многоголосый, закадровый)]
Рейтинг:
(голосов: 1)



[img]{THEME}/images/logopost.png[/img]





Хад / Hud

Год выпуска: 1963
Страна: США
Производство: Paramount Pictures, Salem-Dover Productions
Жанр: драма

Режиссёр: Мартин Ритт
В ролях: Пол Ньюман, Мелвин Дуглас, Патриция Нил, Брендон Де Уайлд, Уит Бисселл, Крэхан Дентон, Джон Эшли, Вэл Эйвери, Джордж Петри, Курт Конуэй

Перевод: Профессиональный (многоголосый, закадровый)
Субтитры: Отсутствуют

Описание:
Молодой владелец ранчо в Техасе Хомер Бэннон привык потакать своим желаниям, волочиться за замужними дамами и пропивать то, что потом и кровью заработал его отец.

Старый Хомер глубоко презирает своего сына за аморальность и безответственность. Только Богу известно к чему приведет долголетнее противостояние этих людей.


Дополнительно:
MediaInfo ▼Text
Общее
Полное имя :L:РАЗДАЧАХадHad.1963.XviD.DVDRip.avi
Формат :AVI
Размер :1.46 GiB
Продолжительность :01:47:06.752
Общий поток :1 947 Kbps
Программа кодирования :Lavf52.33.0

Видео
Идентификатор :0
Формат :MPEG-4 Visual
Профиль формата :[email protected]
Параметр BVOP формата :No
Параметр Qpel формата :No
Параметр GMC формата :0
Параметр Matrix формата :Default (H.263)
Идентификатор кодека :XVID
Продолжительность :1h 47mn 5s 628ms
Битрейт :1 681 Kbps
Ширина :720 pixels
Высота :304 pixels
Соотношение сторон :2.368
Частота кадров :23.976 fps
Глубина цвета :8 bits
Подвыборка цветности :4:2:0
Цветовое пространство :YUV
Тип развертки :Progressive
Бит/(Пиксели*Кадры) :0.320
Размер потока :1.26 GiB (86%)
Библиотека кодирования :XviD0050

Аудио #1
Идентификатор :1
Формат :AC-3
Формат/Информация :Audio Coding 3
Идентификатор кодека :2000
Продолжительность :01:47:06.752
Вид битрейта :Constant
Битрейт :256 Kbps
Канал(ы) :2 channels
Расположение каналов :Front: L R
Частота :48.0 KHz
Битовая глубина :16 bits
Метод сжатия :Lossy
Размер потока :196 MiB (13%)



873a57d3efceeb128e7442d0372f4112e4d42cf4Хад / Hud (Мартин Ритт, драма, 1963) [DVDRip, Профессиональный (многоголосый, закадровый)] Хад / Hud (Мартин Ритт, драма, 1963) [DVDRip, Профессиональный (многоголосый, закадровый)] " />

Аплоадер: Админ, дата: 12-11-2012, 21:20, торрент скачан: 359 раз

Понравилась раздача? Посмотрите эти:
  • Долгое жаркое лето / The Long, Hot Summer (Мартин Ритт, драма, 1958) [BDRip ...
  • Оптимистическая трагедия (Самсон Самсонов, драма, военный, история, 1963) [ ...
  • Командир / Il comandante (Паоло Хеуш, комедия, 1963) [DVDRip, Профессиональ ...
  • Риф Донована / Donovans Reef (Джон Форд, мелодрама, комедия, 1963) [DVDRip, ...
  • Суд (Аида Манасарова, Владимир Скуйбин, драма, детектив, 1963) [DVDRip, Не ...
  • Чудесное спасение белых скакунов / Miracle of the White Stallions (Артур Хи ...
  • Любовники / Les amants (Луи Малль, драма, 1958) [DVDRip, Профессиональный ( ...
  • Хозяин и слуга (Дмитрий Кесаянц, короткометражка, комедия, 1963) [DVDRip, Н ...
  • Соблазненная и покинутая / Sedotta e abbandonata (Пьетро Джерми, драма, ком ...
  • Неудачник - смелый рыцарь / Popolvar najvacsi na svete (Мартин Тапак, фэнте ...
  • Пират-самурай / Dai tozoku (Сенкичи Танигучи, фэнтези, боевик, приключения, ...
  • Пассажирка / Pasazerka (Анджей Мунк, Витольд Лесевич, драма, военный, истор ...
  • Палач / El verdugo (Луис Гарсия Берланга, драма, комедия, 1963) [DVDRip, Пр ...
  • Повелитель мух / Lord of the Flies (Питер Брук, триллер, драма, приключения ...
  • Рай и ад / Tengoku to jigoku (Акира Куросава, триллер, драма, криминал, 196 ...
  • Расплата кровью / The Man Who Came Back (Глен Питре, боевик, драма, вестерн ...
  • Уик-энд / Week End (Жан-Люк Годар, драма, комедия, 1967) [DVDRip, Профессио ...
  • Тупик / Dead End (Уильям Уайлер, драма, криминал, 1937) [DVDRip, Профессион ...
  • Цепная реакция / Carambolages (Марсель Блюваль, комедия, криминал, 1963) [D ...
  • Шпион, пришедший с холода / The Spy Who Came in from the Cold (Мартин Ритт, ...
  • Информация
    Посетители, находящиеся в группе Гости, не могут оставлять комментарии к данной публикации.