вход на сайт

Имя пользователя :
Пароль :

Восстановление пароля Регистрация
Улыбки летней ночи / Sommarnattens leende (Ингмар Бергман, мелодрама, комедия, 1955) [DVDRip, Профессиональный (многоголосый, закадровый)]
Рейтинг:
(голосов: 1)



[img]{THEME}/images/logopost.png[/img]



Улыбки летней ночи / Sommarnattens leende

Год выпуска: 1955
Страна: Швеция
Производство: Svensk Filmindustri (SF) AB
Жанр: мелодрама, комедия

Режиссёр: Ингмар Бергман
В ролях: Улла Якобссон, Ева Дальбек, Харриет Андерссон, Margit Carlqvist, Гуннар Бьёрнстранд, Ярл Кулле, Эке Фриделль, Бьёрн Бьельфвенстам, Найма Вифстранд, Юллан Киндаль

Перевод: Профессиональный (многоголосый, закадровый)
Субтитры: Отсутствуют

Описание:
И каких только чудес не бывает в летнюю ночь, когда два влюбленных, но стеснительных существ оказываются в старинном замке. Да еще и в смежных комнатах! Да и может ли быть иначе, когда сам Ангел-Хранитель сметает все преграды на пути…


Дополнительно:
Знаете ли вы, что... ▼
По мотивам фильма был создан мюзикл «A Little Night Music».

MediaInfo ▼Text
Общее
Полное имя :K:РАЗДАЧАИНГМАР БЕРГМАНУлыбки летней ночиУлыбки летней ночи.avi
Формат :AVI
Размер :700 MiB
Продолжительность :01:49:21.072
Общий поток :895 Kbps
Программа кодирования :VirtualDubMod 1.5.10.2 (build 2540/release)
Библиотека кодирования :VirtualDubMod build 2540/release

Видео
Идентификатор :0
Формат :MPEG-4 Visual
Параметр BVOP формата :No
Параметр Qpel формата :No
Параметр GMC формата :0
Параметр Matrix формата :Default (H.263)
Идентификатор кодека :DX50
Продолжительность :1h 49mn 21s 55ms
Битрейт :758 Kbps
Ширина :608 pixels
Высота :448 pixels
Соотношение сторон :1.357
Частота кадров :23.976 fps
Глубина цвета :8 bits
Подвыборка цветности :4:2:0
Цветовое пространство :YUV
Тип развертки :Progressive
Бит/(Пиксели*Кадры) :0.116
Размер потока :593 MiB (85%)
Библиотека кодирования :DivX503b1328

Аудио #1
Идентификатор :1
Формат :MPEG Audio
Идентификатор кодека :55
Продолжительность :01:49:21.072
Вид битрейта :Constant
Битрейт :128 Kbps
Канал(ы) :2 channels
Частота :48.0 KHz
Метод сжатия :Lossy
Размер потока :100 MiB (14%)Тех. данные:
Качество:DVDRip
Продолжительность:01:49:22 час
&nbs
7e43541c75063aabadbad077c0a290d46a305e38Улыбки летней ночи / Sommarnattens leende (Ингмар Бергман, мелодрама, комедия, 1955) [DVDRip, Профессиональный (многоголосый, закадровый)] Улыбки летней ночи / Sommarnattens leende (Ингмар Бергман, мелодрама, комедия, 1955) [DVDRip, Профессиональный (многоголосый, закадровый)] " />

Аплоадер: Админ, дата: 12-11-2012, 20:30, торрент скачан: 359 раз

Понравилась раздача? Посмотрите эти:
  • Земляничная поляна / Smultronstället (Ингмар Бергман, драма, 1957) [BDRip, ...
  • Однажды на матрасе / Once Upon a Mattress (Кэтлин Маршалл, мюзикл, мелодрам ...
  • Джентельменское соглашение / Gentlemans Agreement (Элиа Казан, драма, мелод ...
  • Из жизни марионеток / Aus Dem Leben Der Marionetten (Ингмар Бергман, драма, ...
  • Дождь над нашей любовью / Det regnar pе vеr kдrlek (Ингмар Бергман, драма, ...
  • Улыбки летней ночи / Smiles on a Summer Night / Sommarnattens leende (Ингм ...
  • Лето с Моникой / Sommaren med Monika (Ингмар Бергман, драма, мелодрама, 195 ...
  • Неприятности с Гарри / The Trouble with Harry (Альфред Хичкок, комедия, три ...
  • Солдат удачи / Soldier of Fortune (Эдвард Дмитрык, приключения, драма, 1955 ...
  • Осенняя соната / Hostsonaten (Ингмар Бергман, драма, музыка, 1978) [DVDRip, ...
  • Лето с Моникой / Sommaren med Monika (Ингмар Бергман, драма, мелодрама, 195 ...
  • Летняя школа / Summer School (Карл Райнер, мелодрама, комедия, 1987) [DVDRi ...
  • Причастие / Nattvardsgдsterna (Ингмар Бергман, драма, 1962) [DVDRip, Профес ...
  • Молчание / Tystnaden (Ингмар Бергман, драма, 1963) [DVDRip, Профессиональны ...
  • Вечер шутов / Gycklarnas afton (Ингмар Бергман, драма, 1953) [DVDRip, Профе ...
  • Ритуал / Riten (Ингмар Бергман, драма, 1969) [DVDRip, Профессиональный (одн ...
  • Девичий источник / Jungfrukallan (Ингмар Бергман, драма, криминал, 1960) [D ...
  • Дьявольское око / Djдvulens цga (Ингмар Бергман, фэнтези, драма, комедия, 1 ...
  • Урок любви / En lektion i karlek (Ингмар Бергман, драма, комедия, 1954) [DV ...
  • Хеллоу, Долли! / Hello, Dolly! (Джин Келли, мюзикл, мелодрама, комедия, сем ...
  • Информация
    Посетители, находящиеся в группе Гости, не могут оставлять комментарии к данной публикации.