вход на сайт

Имя пользователя :
Пароль :

Восстановление пароля Регистрация
Убей! / Kiru (Кихачи Окамото, боевик, драма, комедия, 1968) [DVDRip, Профессиональный (двухголосый, закадровый)]
Рейтинг:
(голосов: 1)



[img]{THEME}/images/logopost.png[/img]



Убей! / Kiru

Год выпуска: 1968
Страна: Япония
Производство: Toho Company
Жанр: боевик, драма, комедия

Режиссёр: Кихачи Окамото
В ролях: Тацуя Накадаи, Эцуши Такахаши, Юрико Хоси, Тадао Накамару, Акира Кубо, Сигэру Кояма, Эйдзиро Тоно, Син Кисида, Ацуо Накамура, Нами Тамур

Перевод: Профессиональный (двухголосый, закадровый)
Субтитры: Отсутствуют

Описание:
Два ронина — экс-самурай и экс-фермер — оказываются вовлеченными в хитроумную игру местных государственных служащих, не брезгующих убийством и предательством своих поданных.


Дополнительно:
MediaInfo ▼Text
Общее
Полное имя :D:РаздачаУбей!kill.avi
Формат :AVI
Размер :1.62 GiB
Продолжительность :01:54:40.374
Общий поток :2 019 Kbps
Программа кодирования :VirtualDubMod 1.5.10.2 (build 2540/release)
Библиотека кодирования :VirtualDubMod build 2540/release

Видео
Идентификатор :0
Формат :MPEG-4 Visual
Профиль формата :Advanced [email protected]
Параметр BVOP формата :1
Параметр Qpel формата :No
Параметр GMC формата :0
Параметр Matrix формата :Default (MPEG)
Идентификатор кодека :XVID
Продолжительность :1h 54mn 40s 374ms
Битрейт :1 818 Kbps
Ширина :640 pixels
Высота :272 pixels
Соотношение сторон :2.353
Частота кадров :23.976 fps
Глубина цвета :8 bits
Подвыборка цветности :4:2:0
Цветовое пространство :YUV
Тип развертки :Progressive
Бит/(Пиксели*Кадры) :0.436
Размер потока :1.46 GiB (90%)
Библиотека кодирования :XviD0047

Аудио #1
Идентификатор :1
Формат :AC-3
Формат/Информация :Audio Coding 3
Идентификатор кодека :2000
Продолжительность :01:54:40.374
Вид битрейта :Constant
Битрейт :192 Kbps
Канал(ы) :1 channel
Расположение каналов :Front: C
Частота :48.0 KHz
Битовая глубина :16 bits
Метод сжатия :Lossy
Размер потока :157 MiB (10%)Тех. данные:
Качество:DVDRip
Продолжите
80d28d9cadd39b0cc3f41d740717e23660419f8bУбей! / Kiru (Кихачи Окамото, боевик, драма, комедия, 1968) [DVDRip, Профессиональный (двухголосый, закадровый)] Убей! / Kiru (Кихачи Окамото, боевик, драма, комедия, 1968) [DVDRip, Профессиональный (двухголосый, закадровый)] " />

Аплоадер: Админ, дата: 12-11-2012, 19:46, торрент скачан: 359 раз

Понравилась раздача? Посмотрите эти:
  • Босс / Le Pacha (Жорж Лотнер, драма, криминал, 1968) [DVDRip, Профессиональ ...
  • Гарри-карманник / Harry in Your Pocket (Брюс Геллер, драма, комедия, кримин ...
  • Поездка в Америку / Coming to America (Джон Лэндис, драма, мелодрама, комед ...
  • Верь мне / Chura Liya Hai Tumne (Сангит Сиван, боевик, триллер, драма, мело ...
  • Однажды на матрасе / Once Upon a Mattress (Кэтлин Маршалл, мюзикл, мелодрам ...
  • Нейтральные воды (Владимир Беренштейн, драма, 1968) [DVDRip, Не требуется]
  • Обнаженная / Naked (Майк Ли, драма, комедия, 1993) [DVDRip, (2х)Профессиона ...
  • Сладкая жизнь / La dolce vita (Федерико Феллини, драма, комедия, 1959) [DVD ...
  • Процесс Жанны Д Арк / Proces de Jeanne dArc (Робер Брессон, драма, военный, ...
  • Тристана / Tristana (Луис Бунюэль, Драма, 1970) [DVDRip, Профессиональный ( ...
  • Мальчишки с улицы Пал / A pal-utcai fiuk (Золтан Фабри, драма, 1968) [DVDRi ...
  • Морские обезьяны / Umizaru (Эйитиро Хасуми, боевик, драма, 2004) [BDRip, Ав ...
  • Неверные / Le infedeli (Марио Моничелли, Стено, драма, комедия, 1953) [DVDR ...
  • Бог знает, мистер Аллисон / Heaven Knows, Mr. Allison (Джон Хьюстон, боевик ...
  • Великий Уолдо Пеппер / The Great Waldo Pepper (Джордж Рой Хилл, драма, прик ...
  • Первый правитель / Gniazdo (Ян Рыбковский, драма, история, 1974) [DVDRip, П ...
  • Псих - Аут / Psych-Out (Ричард Раш, триллер, драма, музыка, 1968) [DVDRip, ...
  • Рай и ад / Tengoku to jigoku (Акира Куросава, триллер, драма, криминал, 196 ...
  • Дьявольское око / Djдvulens цga (Ингмар Бергман, фэнтези, драма, комедия, 1 ...
  • Пески Иво Джимы / Sands of Iwo Jima (Аллан Дуон, боевик, драма, мелодрама, ...
  • Повышение / The Promotion (Стив Конрад, Комедия, 2008) [DVDRip, Профессиона ...
  • Уик-энд / Week End (Жан-Люк Годар, драма, комедия, 1967) [DVDRip, Профессио ...
  • Харакири / Seppuku (Масаки Кобаяси, драма, 1962) [DVDRip, Профессиональный ...
  • Что навеял ветер / Something in the Wind (Ирвинг Пичел, мюзикл, комедия, 19 ...
  • Авария / Breakdown (Джонатан Мостоу, боевик, триллер, драма, криминал, дете ...
  • Информация
    Посетители, находящиеся в группе Гости, не могут оставлять комментарии к данной публикации.