вход на сайт

Имя пользователя :
Пароль :

Восстановление пароля Регистрация
Улица Прери / Rue des Prairies (Дени де Ла Пательер, драма, 1959) [DVDRip, Профессиональный (многоголосый, закадровый)+оригинал]
Рейтинг:
(голосов: 1)



[img]{THEME}/images/logopost.png[/img]



Улица Прери / Rue des Prairies

Год выпуска: 1959
Страна: Италия, Франция
Производство: Intermondia Films, Les Films Ariane
Жанр: драма

Режиссёр: Дени де Ла Пательер
В ролях: Жан Габен, Мари-Жозе Нат, Клод Брассёр, Роже Дюма, Рене Фор, Луи Сенье, Жак Моно, Доминик Паж, Франсуа Шометт, Ги Декомбль

Перевод: Профессиональный (многоголосый, закадровый)+оригинал
Субтитры: Отсутствуют

Описание:
Анри Неве, парижский рабочий, возвращается домой, проведя два года в плену. Он один воспитывает двоих своих детей и одного незаконнорожденного ребенка своей жены, которая умерла при родах. Старший сын, Луи, становится чемпионом Франции по велосипедному спорту, дочка Одетт мечтает стать манекенщицей, а подросший Фернан доставляет много хлопот.


Дополнительно:
MediaInfo ▼Text
Общее
Полное имя :J:Кинокопилка.РуРАЗДАЧАЛуговая улицаLugovaya.ulica.1959.XviD.DVDRip.avi
Формат :AVI
Размер :1.46 GiB
Продолжительность :01:26:13.640
Общий поток :2 430 Kbps
Программа кодирования :VirtualDubMod 1.5.10.2 (build 2540/release)
Библиотека кодирования :VirtualDubMod build 2540/release

Видео
Идентификатор :0
Формат :MPEG-4 Visual
Профиль формата :Advanced [email protected]
Параметр BVOP формата :2
Параметр Qpel формата :No
Параметр GMC формата :0
Параметр Matrix формата :Default (H.263)
Идентификатор кодека :XVID
Продолжительность :1h 26mn 13s 640ms
Битрейт :2 032 Kbps
Ширина :672 pixels
Высота :416 pixels
Соотношение сторон :1.615
Частота кадров :25.000 fps
Глубина цвета :8 bits
Подвыборка цветности :4:2:0
Цветовое пространство :YUV
Тип развертки :Progressive
Бит/(Пиксели*Кадры) :0.291
Размер потока :1.22 GiB (84%)
Библиотека кодирования :XviD0050

Аудио #1
Идентификатор :1
Формат :MPEG Audio
Идентификатор кодека :55
Продолжительность :01:26:13.632
Вид битрейта :Constant
Битрейт :192 Kbps
Канал(ы) :2 channels
Частота :48.0 KHz
Метод сжатия :Lossy
Размер потока :118 MiB (8%)

Аудио #2
416f78fa6350f0696a8330a6ba328979e96d2e43Улица Прери / Rue des Prairies (Дени де Ла Пательер, драма, 1959) [DVDRip, Профессиональный (многоголосый, закадровый)+оригинал] Улица Прери / Rue des Prairies (Дени де Ла Пательер, драма, 1959) [DVDRip, Профессиональный (многоголосый, закадровый)+оригинал] " />

Аплоадер: Админ, дата: 9-11-2012, 20:45, торрент скачан: 359 раз

Понравилась раздача? Посмотрите эти:
  • Вечерние посетители / Les visiteurs du soir (Марсель Карне, фэнтези, драма, ...
  • О чем шумит река (Григорий Мелик-Авакян, драма, 1959) [DVDRip, Не требуется ...
  • Дама с собачкой (Иосиф Хейфиц, драма, мелодрама, 1959) [DVDRip, Не требуетс ...
  • Пройдоха / I Tartassati (Стено, комедия, 1959) [DVDRip, Профессиональный (м ...
  • Гром небесный / Le tonnerre de Dieu (Дени де Ла Пательер, драма, комедия, 1 ...
  • Сладкая жизнь / La dolce vita (Федерико Феллини, драма, комедия, 1959) [DVD ...
  • Карманник / Pickpocket (Робер Брессон, триллер, драма, криминал, 1959) [DVD ...
  • Газойль / Gas-oil (Жиль Гранжье, драма, криминал, 1955) [DVDRip, Профессион ...
  • Сердце и души / Heart and Souls (Рон Андервуд, фэнтези, драма, мелодрама, к ...
  • Любовники / Les amants (Луи Малль, драма, 1958) [DVDRip, Профессиональный ( ...
  • Жить, чтобы жить / Vivre Pour Vivre (Клод Лелуш, драма, 1967) [DVDRip, Проф ...
  • Большой начальник (Вождь краснокожих) / Le grand chef (Анри Вернёй, комедия ...
  • Конвейер / Blue Collar (Пол Шредер, драма, криминал, 1977) [DVDRip, Професс ...
  • Мой дядюшка / Mon oncle (Жак Тати, комедия, 1958) [DVDRip, Профессиональный ...
  • Ночная Маргарита / Marguerite de la nuit (Клод Отан-Лара, фэнтези, драма, 1 ...
  • Рио Браво / Rio Bravo (Ховард Хоукс, драма, мелодрама, вестерн, 1959) [BDRi ...
  • Повышение / The Promotion (Стив Конрад, Комедия, 2008) [DVDRip, Профессиона ...
  • Уик-энд / Week End (Жан-Люк Годар, драма, комедия, 1967) [DVDRip, Профессио ...
  • Властелин джунглей / Ghatothkach (Сингитам Шриниваса Рао, мультфильм, 2008) ...
  • Харакири / Seppuku (Масаки Кобаяси, драма, 1962) [DVDRip, Профессиональный ...
  • Информация
    Посетители, находящиеся в группе Гости, не могут оставлять комментарии к данной публикации.