вход на сайт

Имя пользователя :
Пароль :

Восстановление пароля Регистрация
Как раздражать людей / How to Irritate People (Йен Фордайсе, комедия, 1969) [DVDRip, Любительский (одноголосый, закадровый)+оригинал]
Рейтинг:
(голосов: 1)



[img]{THEME}/images/logopost.png[/img]



Как раздражать людей / How to Irritate People

Год выпуска: 1969
Страна: Великобритания
Производство: David Paradine Productions
Жанр: комедия

Режиссёр: Йен Фордайсе
В ролях: Джон Клиз, Тим Брук-Тейлор, Грэм Чэпмен, Майкл Пэлин, Джиллиан Линд, Конни Бут, Дик Восберг

Перевод: Любительский (одноголосый, закадровый)+оригинал
Субтитры: Отсутствуют

Описание:
Работа выпущена до серий «Цирка Монти Пайтона», в 1968 году. Труппа «Монти Пайтон» разыграла шоу как вывести из себя людей… Сделано всё в духе КВН-овских миниатюр, но в отличие от последнего, авторами скетчей являются сами члены группы.


Дополнительно:
MediaInfo ▼Text
Общее
Полное имя :J:Кинокопилка.РуРАЗДАЧАМонти Пайтон Как раздражать людейКак раздражать людей.avi
Формат :AVI
Размер :1.37 GiB
Продолжительность :01:20:00.280
Общий поток :2 448 Kbps
Программа кодирования :VirtualDubMod 1.5.10.2 (build 2540/release)
Библиотека кодирования :VirtualDubMod build 2540/release

Видео
Идентификатор :0
Формат :MPEG-4 Visual
Параметр BVOP формата :1
Параметр Qpel формата :No
Параметр GMC формата :0
Параметр Matrix формата :Default (H.263)
Идентификатор кодека :DX50
Продолжительность :1h 20mn 0s 280ms
Битрейт :1 989 Kbps
Ширина :640 pixels
Высота :480 pixels
Соотношение сторон :1.333
Частота кадров :25.000 fps
Глубина цвета :8 bits
Подвыборка цветности :4:2:0
Цветовое пространство :YUV
Тип развертки :Progressive
Бит/(Пиксели*Кадры) :0.259
Размер потока :1.11 GiB (81%)
Библиотека кодирования :DivX503b1328p

Аудио #1
Идентификатор :1
Формат :AC-3
Формат/Информация :Audio Coding 3
Идентификатор кодека :2000
Продолжительность :01:19:29.152
Вид битрейта :Constant
Битрейт :224 Kbps
Канал(ы) :2 channels
Расположение каналов :Front: L R
Частота :48.0 KHz
Битовая глубина :16 bits
Метод сжатия :Lossy
Размер потока :127 MiB (9%)

Аудио #2
Идентификатор&nbs
5d028441a5a69da54a84bb3fabf41f245b038b23Как раздражать людей / How to Irritate People (Йен Фордайсе, комедия, 1969) [DVDRip, Любительский (одноголосый, закадровый)+оригинал] Как раздражать людей / How to Irritate People (Йен Фордайсе, комедия, 1969) [DVDRip, Любительский (одноголосый, закадровый)+оригинал] " />

Аплоадер: Админ, дата: 9-11-2012, 19:25, торрент скачан: 359 раз

Понравилась раздача? Посмотрите эти:
  • Воздыхатель / Le soupirant (Пьер Этекс, комедия, 1962) [DVDRip, Профессиона ...
  • Карлик Нос / Zwerg Nase (Карл-Хайнц Бальс, фэнтези, 1978) [DVDRip, Любитель ...
  • С тобой меня радует мир / S tebou me bavi svet (Мария Поледнякова, комедия, ...
  • Докторша и полковник / La dottoressa ci sta col colonnello (Мишель Массимо ...
  • Энн из Зеленых крыш / Anne of Green Gables (Кевин Салливан, драма, семейный ...
  • Свидетель обвинения / Witness for the Prosecution (Билли Уайлдер, драма, де ...
  • Партизанская эскадрилья / Partizanska eskadrila (Хайрудин Крвавац, драма, в ...
  • Румбурак / Rumburak (Вацлав Ворличек, семейный, 1985) [DVDRip, Любительский ...
  • След кота (Уильям А. Уэллмен, драма, вестерн, 1954) [DVDRip, Любительский ( ...
  • Преждевременное погребение / Premature Burial (Роджер Корман, ужасы, драма, ...
  • Круг чистой воды / Ring of Bright Water (Джек Коуффер, драма, комедия, 1969 ...
  • Нет мира под оливами / Non ce pace tra gli ulivi (Джузеппе де Сантис, драма ...
  • Преследуемый / Pursued (Рауль Уолш, триллер, вестерн, 1947) [DVDRip, Любите ...
  • Розенкранц и Гильденштерн мертвы / Rosencrantz & Guildenstern Are Dead (Том ...
  • Охота на мух / Polowanie na muchy (Анджей Вайда, комедия, 1969) [DVDRip, Пр ...
  • Калифорнийский отель / California Suite (Херберт Росс, мелодрама, комедия, ...
  • Урок любви / En lektion i karlek (Ингмар Бергман, драма, комедия, 1954) [DV ...
  • Ростовщик / The Pawnbroker (Сидни Люмет, драма, 1964) [DVDRip, Любительский ...
  • Хеллоу, Долли! / Hello, Dolly! (Джин Келли, мюзикл, мелодрама, комедия, сем ...
  • Медведи и я / The Bears and I (Бернард МакЭвети, драма, семейный, 1974) [DV ...
  • Информация
    Посетители, находящиеся в группе Гости, не могут оставлять комментарии к данной публикации.