вход на сайт

Имя пользователя :
Пароль :

Восстановление пароля Регистрация
Уик-энд / Week End (Жан-Люк Годар, драма, комедия, 1967) [DVDRip, Профессиональный (многоголосый, закадровый)+оригинал]
Рейтинг:
(голосов: 1)



[img]{THEME}/images/logopost.png[/img]



Уик-энд / Week End

Год выпуска: 1967
Страна: Франция, Италия
Производство: Cinecidi, Comacico, Films Copernic, Lira Films
Жанр: драма, комедия

Режиссёр: Жан-Люк Годар
В ролях: Мирей Дарк, Жан Янн, Жан-Пьер Кальфон, Ив Афонсо, Ив Бенетон, Жюльет Берто, Мишель Бретон, Мишель Курно, Омар Диоп, Жан Эсташ

Перевод: Профессиональный (многоголосый, закадровый)+оригинал
Субтитры: Отсутствуют

Описание:
Способно ли хоть что-нибудь потрясти устои благополучного буржуа? Или за город на выходные — это тоже часть божественного промысла? Тогда…


Дополнительно:
MediaInfo ▼Text
Общее
Полное имя :D:РаЗдАчА 2Уик-эндWeekend.avi
Формат :AVI
Размер :1.46 GiB
Продолжительность :01:39:32.000
Общий поток :2 103 Kbps
Программа кодирования :VirtualDubMod 1.5.10.2 (build 2542/release)
Библиотека кодирования :VirtualDubMod build 2542/release

Видео
Идентификатор :0
Формат :MPEG-4 Visual
Профиль формата :Advanced [email protected]
Параметр BVOP формата :2
Параметр Qpel формата :No
Параметр GMC формата :0
Параметр Matrix формата :Default (MPEG)
Идентификатор кодека :XVID
Продолжительность :1h 39mn 32s 0ms
Битрейт :1 704 Kbps
Ширина :656 pixels
Высота :400 pixels
Соотношение сторон :1.640
Частота кадров :25.000 fps
Глубина цвета :8 bits
Подвыборка цветности :4:2:0
Цветовое пространство :YUV
Тип развертки :Progressive
Бит/(Пиксели*Кадры) :0.260
Размер потока :1.18 GiB (81%)
Библиотека кодирования :XviD0057

Аудио #1
Идентификатор :1
Формат :AC-3
Формат/Информация :Audio Coding 3
Идентификатор кодека :2000
Продолжительность :01:39:32.000
Вид битрейта :Constant
Битрейт :192 Kbps
Канал(ы) :2 channels
Расположение каналов :Front: L R
Частота :48.0 KHz
Битовая глубина :16 bits
Метод сжатия :Lossy
Размер потока :137 MiB (9%)

Аудио #2
Идентификатор &n
5c1a7de1e457b420678d25e1dc15dbf9ff3255e5Уик-энд / Week End (Жан-Люк Годар, драма, комедия, 1967) [DVDRip, Профессиональный (многоголосый, закадровый)+оригинал] Уик-энд / Week End (Жан-Люк Годар, драма, комедия, 1967) [DVDRip, Профессиональный (многоголосый, закадровый)+оригинал] " />

Аплоадер: Админ, дата: 8-11-2012, 20:38, торрент скачан: 359 раз

Понравилась раздача? Посмотрите эти:
  • Воздыхатель / Le soupirant (Пьер Этекс, комедия, 1962) [DVDRip, Профессиона ...
  • Привидения по-итальянски / Questi fantasmi (Ренато Кастеллани, фэнтези, ком ...
  • Поездка в Америку / Coming to America (Джон Лэндис, драма, мелодрама, комед ...
  • Мушетт / Mouchette (Робер Брессон, драма, 1967) [DVDRip, Профессиональный ( ...
  • Презрение / Le mepris (Жан-Люк Годар, драма, 1963) [HDRip, Профессиональный ...
  • Обнаженная / Naked (Майк Ли, драма, комедия, 1993) [DVDRip, (2х)Профессиона ...
  • Комиссар (Александр Аскольдов, драма, военный, 1967) [DVDRip, Не требуется] ...
  • Молчание - золото / Le silence est dor (Рене Клер, мелодрама, комедия, 1947 ...
  • Казанова 70 / Casanova 70 (Марио Моничелли, драма, комедия, 1965) [DVDRip, ...
  • Удар головой / Coup de tete (Жан-Жак Анно, драма, комедия, спорт, 1978) [DV ...
  • Безумный Пьеро / Pierrot le fou (Жан-Люк Годар, мюзикл, драма, мелодрама, к ...
  • Любовники / Les amants (Луи Малль, драма, 1958) [DVDRip, Профессиональный ( ...
  • Жить, чтобы жить / Vivre Pour Vivre (Клод Лелуш, драма, 1967) [DVDRip, Проф ...
  • Укрощение строптивой / The Taming of the Shrew (Франко Дзеффирелли, комедия ...
  • Зелиг / Zelig (Вуди Аллен, фэнтези, комедия, 1983) [DVDRip, Авторский (одно ...
  • Лето с Моникой / Sommaren med Monika (Ингмар Бергман, драма, мелодрама, 195 ...
  • Мы поедем в Дювиль / Nous irons a Deauville (Френсис Риго, комедия, 1962) [ ...
  • Будь красивой и молчи / Sois belle et tais-toi (Марк Аллегре, комедия, 1958 ...
  • Королева викингов / The Viking Queen (Дон Чэффи, боевик, приключения, 1967) ...
  • Мой дядюшка / Mon oncle (Жак Тати, комедия, 1958) [DVDRip, Профессиональный ...
  • Млечный путь / La voie lactee (Луис Бунюэль, драма, комедия, 1969) [DVDRip, ...
  • Дьявольское око / Djдvulens цga (Ингмар Бергман, фэнтези, драма, комедия, 1 ...
  • Повышение / The Promotion (Стив Конрад, Комедия, 2008) [DVDRip, Профессиона ...
  • Харакири / Seppuku (Масаки Кобаяси, драма, 1962) [DVDRip, Профессиональный ...
  • Близнец / Le jumeau (Ив Робер, Комедия, 1984) [DVDRip, Профессиональный (мн ...
  • Информация
    Посетители, находящиеся в группе Гости, не могут оставлять комментарии к данной публикации.