вход на сайт

Имя пользователя :
Пароль :

Восстановление пароля Регистрация
Скандал в Клошмерле / Clochemerle (Пьер Шеналь, комедия, 1948) [DVDRip, Профессиональный (полное дублирование)]
Рейтинг:
(голосов: 1)



[img]{THEME}/images/logopost.png[/img]



Скандал в Клошмерле / Clochemerle

Год выпуска: 1948
Страна: Франция
Производство: Cinema Productions
Жанр: комедия

Режиссёр: Пьер Шеналь
В ролях: Феликс Удар, Сатюрнен Фабр, Жан Брошар, Maximilienne, Ролан Армонтель, Джен Маркен, Симона Мишелс, Кристиана Мюллер, Поль Деманж, Макс Дальбан

Перевод: Профессиональный (полное дублирование)
Субтитры: Отсутствуют

Описание:
В центре небольшого городка власти для удобства мужского населения установили туалет, точнее писсуары, лишь слегка прикрытые от взгляда прохожих. Ноги и голова — на виду, ну а то самое — скрыто.


Дополнительно:
MediaInfo ▼Text
Общее
Полное имя :M:ФильмыРАЗДАЧАСкандал в Клошмерлеskandal_v_kloshmerle.avi
Формат :AVI
Размер :1.46 GiB
Продолжительность :01:25:42.095
Общий поток :2 436 Kbps
Программа кодирования :VirtualDubMod 1.5.10.2 (build 2540/release)

Видео
Идентификатор :0
Формат :MPEG-4 Visual
Профиль формата :Advanced [email protected]
Параметр BVOP формата :2
Параметр Qpel формата :No
Параметр GMC формата :0
Параметр Matrix формата :Custom
Идентификатор кодека :XVID
Продолжительность :1h 25mn 42s 95ms
Битрейт :2 234 Kbps
Ширина :640 pixels
Высота :480 pixels
Соотношение сторон :1.333
Частота кадров :23.976 fps
Глубина цвета :8 bits
Подвыборка цветности :4:2:0
Цветовое пространство :YUV
Тип развертки :Progressive
Бит/(Пиксели*Кадры) :0.303
Размер потока :1.34 GiB (92%)
Библиотека кодирования :XviD0065

Аудио #1
Идентификатор :1
Формат :AC-3
Формат/Информация :Audio Coding 3
Идентификатор кодека :2000
Продолжительность :01:25:41.952
Вид битрейта :Constant
Битрейт :192 Kbps
Канал(ы) :2 channels
Расположение каналов :Front: L R
Частота :48.0 KHz
Битовая глубина :16 bits
Метод сжатия :Lossy
Размер потока :118 MiB (8%)Тех. данные:
Качество:DVDRip
Продолжительность:0
ef5db40cf442f3a8ba96f51607ffc16981457a53Скандал в Клошмерле / Clochemerle (Пьер Шеналь, комедия, 1948) [DVDRip, Профессиональный (полное дублирование)] Скандал в Клошмерле / Clochemerle (Пьер Шеналь, комедия, 1948) [DVDRip, Профессиональный (полное дублирование)] " />

Аплоадер: Админ, дата: 7-11-2012, 20:39, торрент скачан: 359 раз

Понравилась раздача? Посмотрите эти:
  • Воздыхатель / Le soupirant (Пьер Этекс, комедия, 1962) [DVDRip, Профессиона ...
  • Воры в законе (Юрий Кара, триллер, криминал, 1988) [DVDRip, Профессиональны ...
  • Кукарача (Кети Долидзе, Сико Долидзе, драма, 1982) [DVDRip, Профессиональны ...
  • Девушка со швейной машинкой (Михаил Чиаурели, Георгий Шенгелая, комедия, 19 ...
  • Гикор (Сергей Исраелян, драма, семейный, 1982) [DVDRip, Профессиональный (п ...
  • Папаши / Les comperes (Франсис Вебер, Комедия, криминал, 1983) [DVDRip, Про ...
  • Диверсанты / The Demolition Squad (Хайрудин Крвавац, военный, 1967) [DVDRip ...
  • Молчание - золото / Le silence est dor (Рене Клер, мелодрама, комедия, 1947 ...
  • Чудовище / LAnimal (Клод Зиди, комедия, 1977) [DVDRip, Профессиональный (по ...
  • Удача (Баадур Цуладзе, короткометражка, комедия, 1980) [TVRip, Профессионал ...
  • Я, бабушка, Илико и Илларион (Тенгиз Абуладзе, мелодрама, комедия, 1962) [D ...
  • Слуги дьявола на Чёртовой мельнице (Александр Лейманис, комедия, приключени ...
  • Слуги Дьявола (Александр Лейманис, комедия, приключения, 1970) [DVDRip, Про ...
  • Я стеснительный, но я лечусь / Je suis timide... mais je me soigne (Пьер Ри ...
  • Высокий блондин в черном ботинке / Le grand blond avec une chaussure noire ...
  • Рассеянный / Le distrait (Пьер Ришар, комедия, 1970) [DVDRip, Профессиональ ...
  • Оливер Твист / Oliver Twist (Дэвид Лин, драма, 1948) [DVDRip, Профессиональ ...
  • Где генерал? / Gdzie jest general… (Тадеуш Хмелевский, комедия, военный, 19 ...
  • Девичий заговор / Rzeczpospolita babska (Хероним Пшибыл, комедия, 1969) [DV ...
  • Уик-энд / Week End (Жан-Люк Годар, драма, комедия, 1967) [DVDRip, Профессио ...
  • Информация
    Посетители, находящиеся в группе Гости, не могут оставлять комментарии к данной публикации.