вход на сайт

Имя пользователя :
Пароль :

Восстановление пароля Регистрация
Тихая дуэль / Shizukanaru ketto (Акира Куросава, драма, 1949) [DVDRip, Профессиональный (многоголосый, закадровый)+оригинал, Субтитры: Rus.]
Рейтинг:
(голосов: 1)



[img]{THEME}/images/logopost.png[/img]



Тихая дуэль / Shizukanaru ketto

Год выпуска: 1949
Страна: Япония
Производство: Daiei Motion Picture Co. Ltd., Daiei Studios, Film Art Association
Жанр: драма

Режиссёр: Акира Куросава
В ролях: Тосиро Мифунэ, Такаси Симура, Мики Санжо, Кендзиро Уэмура, Тиэко Накакита, Норико Сэнгоку, Jyonosuke Miyazaki, Исаму Ямагути, Шигеру Матсумото, Хироко Матида

Перевод: Профессиональный (многоголосый, закадровый)+оригинал
Субтитры: Русские (отдельно)

Описание:
Фильм о военном враче, заразившемся сифилисом во время операции. Теперь он не может жениться на девушке, которую любит, и вынужден расстаться с ней.


Дополнительно:
MediaInfo ▼Text
Общее
Полное имя :M:ФильмыРАЗДАЧАТихая дуэльDuelTihaja.duel.(DVDRip,XviD,Rus,Jpa).avi
Формат :AVI
Размер :1.45 GiB
Продолжительность :01:34:35.920
Общий поток :2 202 Kbps

Видео
Идентификатор :0
Формат :MPEG-4 Visual
Профиль формата :Advanced [email protected]
Параметр BVOP формата :1
Параметр Qpel формата :No
Параметр GMC формата :0
Параметр Matrix формата :Custom
Идентификатор кодека :XVID
Продолжительность :1h 34mn 35s 920ms
Битрейт :1 804 Kbps
Ширина :640 pixels
Высота :464 pixels
Соотношение сторон :1.379
Частота кадров :23.976 fps
Глубина цвета :8 bits
Подвыборка цветности :4:2:0
Цветовое пространство :YUV
Тип развертки :Progressive
Бит/(Пиксели*Кадры) :0.253
Размер потока :1.19 GiB (82%)
Библиотека кодирования :XviD0050

Аудио #1
Идентификатор :1
Формат :AC-3
Формат/Информация :Audio Coding 3
Идентификатор кодека :2000
Продолжительность :01:34:35.904
Вид битрейта :Constant
Битрейт :192 Kbps
Канал(ы) :2 channels
Расположение каналов :Front: L R
Частота :48.0 KHz
Битовая глубина :16 bits
Метод сжатия :Lossy
Размер потока :130 MiB (9%)
Язык : / /

Аудио #2
Идентификатор &n
b08385885035e5ec635555de5fbf34d7296b3af0Тихая дуэль / Shizukanaru ketto (Акира Куросава, драма, 1949) [DVDRip, Профессиональный (многоголосый, закадровый)+оригинал, Субтитры: Rus.] Тихая дуэль / Shizukanaru ketto (Акира Куросава, драма, 1949) [DVDRip, Профессиональный (многоголосый, закадровый)+оригинал, Субтитры: Rus.] " />

Аплоадер: Админ, дата: 7-11-2012, 20:36, торрент скачан: 359 раз

Понравилась раздача? Посмотрите эти:
  • Красная борода / Akahige (Акира Куросава, драма, 1965) [BDRip, Профессионал ...
  • Расёмон / Rashômon (Акира Куросава, Драма, криминал, детектив, 1950) [BDRip ...
  • Ран / Ran (Акира Куросава, боевик, драма, военный, 1985) [BDRip, Профессион ...
  • Жить / Ikiru (Акира Куросава, драма, 1952) [BDRip 720p, Профессиональный (м ...
  • На дне / Donzoko (Акира Куросава, драма, 1957) [BDRip 720p, Авторский (Одно ...
  • Кагемуся: Тень воина / Kagemusha (Акира Куросава, драма, военный, история, ...
  • Расёмон / Rashomon (Акира Куросава, драма, криминал, детектив, 1950) [DVDRi ...
  • Я живу в страхе / Ikimono no kiroku (Акира Куросава, драма, 1955) [DVDRip-A ...
  • Трое негодяев в скрытой крепости / Kakushi-toride no san-akunin (Акира Куро ...
  • Бездомный пес / Nora inu (Акира Куросава, триллер, драма, криминал, 1949) [ ...
  • Тихая дуэль / Shizukanaru ketto (Акира Куросава, драма, 1949) [BDRip 720p, ...
  • Рай и ад / Tengoku to jigoku (Акира Куросава, триллер, драма, криминал, 196 ...
  • Расемон / Rashomon (Акира Куросава, драма, детектив, 1950) [DVDRip, Професс ...
  • Трон в крови / 蜘蛛巣城 (Акира Куросава, драма, 1957) [DVDRip, Профессиональный ...
  • Дуэль / Duel (Стивен Спилберг, триллер, детектив, 1971) [DVDRip, Профессион ...
  • Жить / Ikiru (Акира Куросава, драма, 1952) [DVDRip, Профессиональный (много ...
  • Под знаком Козерога / Under Capricorn (Альфред Хичкок, драма, мелодрама, 19 ...
  • Бездомный пес / Nora inu (Акира Куросава, фильм-нуар, триллер, драма, крими ...
  • Плохие спят спокойно / Warui yatsu hodo yoku nemuru (Акира Куросава, трилле ...
  • Рай и ад / Tengoku to jigoku (Акира Куросава, триллер, драма, криминал, 196 ...
  • Телохранитель 2: Отважный Сандзюро / Tsubaki Sanjuro (Акира Куросава, боеви ...
  • Кагемуся: Тень воина / Kagemusha (Акира Куросава, драма, военный, история, ...
  • Трон в крови / Kumonosu-jo (Акира Куросава, драма, 1957) [DVDRip, Профессио ...
  • Уик-энд / Week End (Жан-Люк Годар, драма, комедия, 1967) [DVDRip, Профессио ...
  • Харакири / Seppuku (Масаки Кобаяси, драма, 1962) [DVDRip, Профессиональный ...
  • Информация
    Посетители, находящиеся в группе Гости, не могут оставлять комментарии к данной публикации.