вход на сайт

Имя пользователя :
Пароль :

Восстановление пароля Регистрация
Римлянка / La romana (Луиджи Дзампа, драма, 1954) [DVDRip, Любительский (одноголосый, закадровый)]
Рейтинг:
(голосов: 1)



[img]{THEME}/images/logopost.png[/img]



Римлянка / La romana

Год выпуска: 1954
Страна: Франция, Италия
Производство: Excelsa Film, Omnium International du Film, Ponti-De Laurentiis Cinematografica
Жанр: драма

Режиссёр: Луиджи Дзампа
В ролях: Джина Лоллобриджида, Даниель Желен, Франко Фабрици, Пина Пиовани, Раймон Пеллегрин, Густаво Джиорджи

Перевод: Любительский (одноголосый, закадровый)
Субтитры: Отсутствуют

Описание:
Фильм создан по одноименному роману известного итальянского писателя Альберто Моравия. Главная героиня Адриана, очень красива, но бедна, и, конечно, ждет любви. Мать мечтает о карьере и богатстве для дочери, но жизнь рушит все их надежды и ожидания…


Дополнительно:
MediaInfo ▼Text
Общее
Полное имя :M:ФильмыРАЗДАЧАРимлянкаRimljanka.1954.DVDRip.avi
Формат :AVI
Размер :1.45 GiB
Продолжительность :01:28:23.200
Общий поток :2 351 Kbps
Программа кодирования :Lavf52.33.0

Видео
Идентификатор :0
Формат :MPEG-4 Visual
Профиль формата :[email protected]
Параметр BVOP формата :No
Параметр Qpel формата :No
Параметр GMC формата :0
Параметр Matrix формата :Default (H.263)
Идентификатор кодека :XVID
Продолжительность :1h 28mn 23s 173ms
Битрейт :2 149 Kbps
Ширина :720 pixels
Высота :384 pixels
Соотношение сторон :1.875
Частота кадров :23.976 fps
Глубина цвета :8 bits
Подвыборка цветности :4:2:0
Цветовое пространство :YUV
Тип развертки :Progressive
Бит/(Пиксели*Кадры) :0.324
Размер потока :1.33 GiB (91%)
Библиотека кодирования :XviD0050

Аудио #1
Идентификатор :1
Формат :AC-3
Формат/Информация :Audio Coding 3
Идентификатор кодека :2000
Продолжительность :01:28:23.200
Вид битрейта :Constant
Битрейт :192 Kbps
Канал(ы) :2 channels
Расположение каналов :Front: L R
Частота :48.0 KHz
Битовая глубина :16 bits
Метод сжатия :Lossy
Размер потока :121 MiB (8%)Тех. данные:
Качество:&nbs
6097e55e11b5fbfa37d96e7a4d3c9bd1fd49947aРимлянка / La romana (Луиджи Дзампа, драма, 1954) [DVDRip, Любительский (одноголосый, закадровый)] Римлянка / La romana (Луиджи Дзампа, драма, 1954) [DVDRip, Любительский (одноголосый, закадровый)] " />

Аплоадер: Админ, дата: 4-11-2012, 22:19, торрент скачан: 359 раз

Понравилась раздача? Посмотрите эти:
  • Карлик Нос / Zwerg Nase (Карл-Хайнц Бальс, фэнтези, 1978) [DVDRip, Любитель ...
  • Сигнальщик / The Signalman (Лоуренс Гордон Кларк, короткометражка, ужасы, ...
  • Отдел исполнения наказаний / La polizia ringrazia (Стено, драма, криминал, ...
  • Тайная полиция Италии / Italian Secret Service (Луиджи Коменчини, комедия, ...
  • Маркиз дель Грилло / Il Marchese del Grillo (Марио Моничелли, комедия, 1981 ...
  • Докторша и полковник / La dottoressa ci sta col colonnello (Мишель Массимо ...
  • Энн из Зеленых крыш / Anne of Green Gables (Кевин Салливан, драма, семейный ...
  • Одинокая женщина / Kobieta samotna (Агнешка Холланд, драма, 1981) [DVDRip, ...
  • Таинственная находка (Борис Бунеев, детский, приключения, 1954) [DVDRip, Не ...
  • Партизанская эскадрилья / Partizanska eskadrila (Хайрудин Крвавац, драма, в ...
  • След кота (Уильям А. Уэллмен, драма, вестерн, 1954) [DVDRip, Любительский ( ...
  • Преждевременное погребение / Premature Burial (Роджер Корман, ужасы, драма, ...
  • Черное солнце: Бойня в Нанкине / Hei tai yang Nan Jing da tu sha (Тун Фей М ...
  • Лиловая равнина / The Purple Plain (Роберт Пэрриш, боевик, драма, приключен ...
  • На серебряной планете / Na srebrnym globie (Анджей Жулавски, фантастика, фэ ...
  • В порту / On the Waterfront (Элиа Казан, драма, криминал, 1954) [DVDRip, Пр ...
  • Неверные / Le infedeli (Марио Моничелли, Стено, драма, комедия, 1953) [DVDR ...
  • Нет мира под оливами / Non ce pace tra gli ulivi (Джузеппе де Сантис, драма ...
  • Урок любви / En lektion i karlek (Ингмар Бергман, драма, комедия, 1954) [DV ...
  • Ростовщик / The Pawnbroker (Сидни Люмет, драма, 1964) [DVDRip, Любительский ...
  • Робинзон Крузо / Robinson Crusoe (Луис Бунюэль, драма, приключения, 1954) [ ...
  • Как раздражать людей / How to Irritate People (Йен Фордайсе, комедия, 1969) ...
  • Четыре дня Неаполя / Le quattro giornate di Napoli (Нанни Лой, драма, военн ...
  • Эмбрион охотится тайно / Taiji ga mitsuryo suru toki (Кодзи Вакамацу, драма ...
  • Медведи и я / The Bears and I (Бернард МакЭвети, драма, семейный, 1974) [DV ...
  • Информация
    Посетители, находящиеся в группе Гости, не могут оставлять комментарии к данной публикации.