вход на сайт

Имя пользователя :
Пароль :

Восстановление пароля Регистрация
Пять легких пьес / Five Easy Pieces (Боб Рейфелсон, драма, 1970) [DVDRip, Профессиональный (Многоголосый, закадровый)]
Рейтинг:
(голосов: 1)



[img]{THEME}/images/logopost.png[/img]





Пять легких пьес / Five Easy Pieces

Год выпуска: 1970
Страна: США
Производство: BBS Productions, Columbia Pictures Corporation, Raybert Productions
Жанр: драма

Режиссёр: Боб Рейфелсон
В ролях: Джек Николсон, Карен Блэк, Сьюзен Энспак, Фэнни Флэгг, Билли Грин Буш, Сэлли Стразерс, Марлена МакГуайр, Ричард Стал, Лоис Смит, Ральф Уэйт

Перевод: Профессиональный (Многоголосый, закадровый)
Субтитры: Отсутствуют

Описание:
Нефтяник Роберт Дюпи живет в одном из городков Техаса. Его спутница жизни работает официанткой в местной забегаловке. Никто не знает, что когда-то Роберт был талантливым пианистом, но поставил крест на карьере музыканта, бросил родственников и уехал в Техас. Но однажды ему приходит сообщение, что его отец при смерти.


Дополнительно:
Рейтинг MPAA: ▼
Рейтинг R - Лицам до 17 лет обязательно присутствие взрослого



MediaInfo ▼Text
Общее
Полное имя :C:UsersАЛЕКСАНДРVideosРаЗдАчАПять легких пьесПять легких пьес.avi
Формат :AVI
Размер :697 MiB
Продолжительность :01:34:14.880
Общий поток :1 035 Kbps
Программа кодирования :VirtualDubMod 1.5.10.1 (build 2366/release)
Библиотека кодирования :VirtualDubMod build 2366/release

Видео
Идентификатор :0
Формат :MPEG-4 Visual
Идентификатор кодека :DIV3
Продолжительность :1h 34mn 14s 880ms
Битрейт :865 Kbps
Ширина :640 pixels
Высота :352 pixels
Соотношение сторон :1.818
Частота кадров :25.000 fps
Глубина цвета :8 bits
Цветовое пространство :YUV
Бит/(Пиксели*Кадры) :0.154
Размер потока :583 MiB (84%)

Аудио #1
Идентификатор :1
Формат :MPEG Audio
Идентификатор кодека :55
Продолжительность :01:34:14.152
Вид битрейта :Constant
Битрейт :160 Kbps
Канал(ы) :2 channels
Частота :44.1 KHz
Метод сжатия :Lossy
Размер потока :108 MiB (15%)Тех. данные:
Качество:DVDRip
Продолжительность:01:34:10 час

Формат: AVI
Видео кодек:
Аудио кодек: MPA1L3
Видео: 640 x 352 (16:9), 25.000 fps, 865 Kbps, 0.154 bit/pixel
Аудио : 44.1 KHz, , 2 channels (), 160 Kbps



368e7fd81f08d7f7e9e4c38c28177402bd532eb0Пять легких пьес / Five Easy Pieces (Боб Рейфелсон, драма, 1970) [DVDRip, Профессиональный (Многоголосый, закадровый)] Пять легких пьес / Five Easy Pieces (Боб Рейфелсон, драма, 1970) [DVDRip, Профессиональный (Многоголосый, закадровый)] " />

Аплоадер: Админ, дата: 4-11-2012, 20:29, торрент скачан: 359 раз

Понравилась раздача? Посмотрите эти:
  • Иногда они возвращаются / Sometimes They Come Back (Том Маклафлин, ужасы, т ...
  • МакКейб и миссис Миллер / McCabe & Mrs. Miller (Роберт Олтмен, драма, весте ...
  • Репли-Кейт / Repli-Kate (Фрэнк Лонго, фантастика, комедия, 2002) [DVDRip, П ...
  • Король Лир / King Lear (Питер Брук, трагедия, 1970) [DVDRip, Профессиональн ...
  • Шампунь / Shampoo (Хэл Эшби, драма, мелодрама, 1975) [HDTVRip, Профессионал ...
  • Эй! В моем супе девушка / Theres a Girl in My Soup (Рой Боултинг, комедия, ...
  • Беспечный ездок / Easy Rider (Деннис Хоппер, драма, криминал, 1969 г) [DVDR ...
  • Кровь и вино / Blood and Wine (Боб Рейфелсон, Триллер, драма, криминал, 199 ...
  • Вальсирующие / Les valseuses (Бертран Блие, драма, комедия, криминал, 1966) ...
  • Афера / The Sting (Джордж Рой Хилл, комедия, криминал, 1973) [DVDRip, Профе ...
  • Тристана / Tristana (Луис Бунюэль, Драма, 1970) [DVDRip, Профессиональный ( ...
  • Бандитский Йоханнесбург / Jerusalema (Ральф Зиман, боевик, драма, криминал, ...
  • Осенняя соната / Hostsonaten (Ингмар Бергман, драма, музыка, 1978) [DVDRip, ...
  • Колено Клер / Le genou de Claire (Эрик Ромер, драма, мелодрама, 1970) [DVDR ...
  • Квадрофения / Quadrophenia (Фрэнк Роддэм, драма, криминал, музыка, 1979) [H ...
  • Конвейер / Blue Collar (Пол Шредер, драма, криминал, 1977) [DVDRip, Професс ...
  • Погоня за Бенджи / Benji the Hunted (Джо Кэмп, приключения, семейный, 1987) ...
  • Подержанные автомобили / Used Cars (Роберт Земекис, комедия, 1980) [DVDRip, ...
  • Расплата кровью / The Man Who Came Back (Глен Питре, боевик, драма, вестерн ...
  • Повышение / The Promotion (Стив Конрад, Комедия, 2008) [DVDRip, Профессиона ...
  • Информация
    Посетители, находящиеся в группе Гости, не могут оставлять комментарии к данной публикации.