вход на сайт

Имя пользователя :
Пароль :

Восстановление пароля Регистрация
На хуторе у леса / Na samote u lesa (Иржи Менцель, драма, комедия, семейный, 1977) [DVDRip, Профессиональный (одноголосый, закадровый)+оригинал]
Рейтинг:
(голосов: 1)



[img]{THEME}/images/logopost.png[/img]



На хуторе у леса / Na samote u lesa

Год выпуска: 1977
Страна: Чехия, Словакия
Производство: Filmove Studio Barrandov
Жанр: драма, комедия, семейный

Режиссёр: Иржи Менцель
В ролях: Йозеф Кемр, Зденек Сверак, Даниэла Коларова, Marta Hradilkova, Martin Hradilek, Ладислав Смоляк, Ян Тришка, Надя Урбанкова, Зденек Блажек, Алоис Лишкутин

Перевод: Профессиональный (одноголосый, закадровый)+оригинал
Субтитры: Отсутствуют

Описание:
Семья из 4 человек вместе с детьми, решает покинуть Прагу и на лето купить дом в деревне. Они находят странного и забавного владельца дома на хуторе около леса и живут некоторое время у него. Сатира о типичных чешских дачниках «На хуторе около леса», которая Менцелю завоевала ряд премий на зарубежных кинофестивалях.


Дополнительно:
MediaInfo ▼Text
Общее
Полное имя :K:РАЗДАЧАНа хуторе у лесаНа хуторе у лесаNa_Xytore_Y_Lesa.avi
Формат :AVI
Размер :1.37 GiB
Продолжительность :01:31:26.000
Общий поток :2 139 Kbps
Программа кодирования :VirtualDubMod 1.5.4.1 (build 2178/release)
Библиотека кодирования :VirtualDubMod build 2178/release

Видео
Идентификатор :0
Формат :MPEG-4 Visual
Профиль формата :Advanced [email protected]
Параметр BVOP формата :1
Параметр Qpel формата :No
Параметр GMC формата :0
Параметр Matrix формата :Custom
Идентификатор кодека :XVID
Продолжительность :1h 31mn 26s 0ms
Битрейт :1 760 Kbps
Ширина :528 pixels
Высота :400 pixels
Соотношение сторон :1.320
Частота кадров :25.000 fps
Глубина цвета :8 bits
Подвыборка цветности :4:2:0
Цветовое пространство :YUV
Тип развертки :Progressive
Бит/(Пиксели*Кадры) :0.333
Размер потока :1.12 GiB (82%)
Библиотека кодирования :XviD0047

Аудио #1
Идентификатор :1
Формат :MPEG Audio
Идентификатор кодека :55
Продолжительность :01:31:25.104
Вид битрейта :Variable
Битрейт :176 Kbps
Канал(ы) :2 channels
Частота :48.0 KHz
Метод сжатия :Lossy
Размер потока :115 MiB (8%)
Язык &nbs
59a9b78b975493ad8a193c7950878e6753834663На хуторе у леса / Na samote u lesa (Иржи Менцель, драма, комедия, семейный, 1977) [DVDRip, Профессиональный (одноголосый, закадровый)+оригинал] На хуторе у леса / Na samote u lesa (Иржи Менцель, драма, комедия, семейный, 1977) [DVDRip, Профессиональный (одноголосый, закадровый)+оригинал] " />

Аплоадер: Админ, дата: 4-11-2012, 08:08, торрент скачан: 359 раз

Понравилась раздача? Посмотрите эти:
  • Воздыхатель / Le soupirant (Пьер Этекс, комедия, 1962) [DVDRip, Профессиона ...
  • Все решается в среду / Big Wednesday (Джон Милиус, драма, комедия, спорт, 1 ...
  • Ботинок по имени Мелихар / Bota Jmenem Melichar (Зденек Трошка, семейный, 1 ...
  • С тобой меня радует мир / S tebou me bavi svet (Мария Поледнякова, комедия, ...
  • Покаяние (Тенгиз Абуладзе, драма, комедия, 1984) [DVDRip, Профессиональный ...
  • Жизнь и необычайные приключения солдата Ивана Чонкина (Иржи Менцель, мелодр ...
  • Синбад и Глаз Тигра / Sinbad and the Eye of the Tiger (Сэм Уонамейкер , фэн ...
  • Деревенька моя центральная / Vesnicko ma strediskova (Иржи Менцель, Комедия ...
  • Коля / Kolja (Ян Сверак, Драма, комедия, музыка, 1996) [HDRip, Авторский (о ...
  • Молот ведьм / Kladivo na carodejnice (Отакар Вавра, драма, 1969) [DVDRip, П ...
  • Риф Донована / Donovans Reef (Джон Форд, мелодрама, комедия, 1963) [DVDRip, ...
  • Румбурак / Rumburak (Вацлав Ворличек, семейный, 1985) [DVDRip, Любительский ...
  • Приехали на конкурс повара (Нерсес Оганесян, комедия, 1977) [DVDRip, Не тре ...
  • Лето с Моникой / Sommaren med Monika (Ингмар Бергман, драма, мелодрама, 195 ...
  • Кутилы / Les bons vivants (Жиль Гранжье, Жорж Лотнер, драма, комедия, 1965) ...
  • Бог знает, мистер Аллисон / Heaven Knows, Mr. Allison (Джон Хьюстон, боевик ...
  • Конвейер / Blue Collar (Пол Шредер, драма, криминал, 1977) [DVDRip, Професс ...
  • Экспериментатор / Slunce, seno, jahody (Зденек Трошка, Комедия, 1984) [DVDR ...
  • Семейный доктор / House Calls (Ховард Зифф, драма, мелодрама, комедия, 1978 ...
  • Дьявольское око / Djдvulens цga (Ингмар Бергман, фэнтези, драма, комедия, 1 ...
  • Урок любви / En lektion i karlek (Ингмар Бергман, драма, комедия, 1954) [DV ...
  • Уик-энд / Week End (Жан-Люк Годар, драма, комедия, 1967) [DVDRip, Профессио ...
  • Бессмертная тетушка / Nesmrtelna teta (Зденек Зеленка, комедия, 1993) [DVDR ...
  • Интимные услуги / Personal Services (Терри Джонс, Комедия, 1986) [DVDRip, П ...
  • Медведи и я / The Bears and I (Бернард МакЭвети, драма, семейный, 1974) [DV ...
  • Информация
    Посетители, находящиеся в группе Гости, не могут оставлять комментарии к данной публикации.