вход на сайт

Имя пользователя :
Пароль :

Восстановление пароля Регистрация
Ростовщик / The Pawnbroker (Сидни Люмет, драма, 1964) [DVDRip, Любительский (одноголосый)]
Рейтинг:
(голосов: 1)



[img]{THEME}/images/logopost.png[/img]





Ростовщик / The Pawnbroker

Год выпуска: 1964
Страна: США
Производство: Landau Company
Жанр: драма

Режиссёр: Сидни Люмет
В ролях: Род Стайгер, Джеральдин Фицджералд, Брок Питерс, Хайме Санчес, Тельма Оливер

Перевод: Любительский (одноголосый)
Субтитры: Отсутствуют

Описание:
Еврейский ростовщик, жертва нацистского преследования, перестает доверять всем своим родным и единоверцам, и слишком поздно понимает, к какой трагедии привели его действия.


Дополнительно:
MediaInfo ▼Text
Общее
Полное имя :K:РАЗДАЧАРостовщикthe_pawnbroker.avi
Формат :AVI
Размер :1.46 GiB
Продолжительность :01:55:22.416
Общий поток :1 806 Kbps
Программа кодирования :VirtualDubMod 1.5.10.2 (build 2540/release)
Библиотека кодирования :VirtualDubMod build 2540/release

Видео
Идентификатор :0
Формат :MPEG-4 Visual
Профиль формата :Advanced [email protected]
Параметр BVOP формата :1
Параметр Qpel формата :No
Параметр GMC формата :0
Параметр Matrix формата :Custom
Идентификатор кодека :XVID
Продолжительность :1h 55mn 22s 416ms
Битрейт :1 669 Kbps
Ширина :624 pixels
Высота :480 pixels
Соотношение сторон :1.300
Частота кадров :23.976 fps
Глубина цвета :8 bits
Подвыборка цветности :4:2:0
Цветовое пространство :YUV
Тип развертки :Progressive
Бит/(Пиксели*Кадры) :0.232
Размер потока :1.34 GiB (92%)
Библиотека кодирования :XviD0050

Аудио #1
Идентификатор :1
Формат :MPEG Audio
Идентификатор кодека :55
Продолжительность :01:55:20.352
Вид битрейта :Constant
Битрейт :128 Kbps
Канал(ы) :1 channel
Частота :48.0 KHz
Метод сжатия :Lossy
Размер потока :106 MiB (7%)Тех. данные:
Качество:DVDRip
Продолжительность:01:55:26 час

Формат: AVI
Видео кодек: XviD
Аудио кодек: MPA1L3
Видео: 624 x 480 (1.300), 23.976 fps, 1 669 Kbps, 0.232 bit/pixel
Аудио : 48.0 KHz, , 1 channel (), 128 Kbps



9445e7e5a0b3fd39c86351319933029fd4f4d22dРостовщик / The Pawnbroker (Сидни Люмет, драма, 1964) [DVDRip, Любительский (одноголосый)] Ростовщик / The Pawnbroker (Сидни Люмет, драма, 1964) [DVDRip, Любительский (одноголосый)] " />

Аплоадер: Админ, дата: 4-11-2012, 02:23, торрент скачан: 359 раз

Понравилась раздача? Посмотрите эти:
  • Марш на Дрину / Mars na Drinu (Живорад «Жика» Митрович, боевик, драма, воен ...
  • Пленники болот / Lure of the Wilderness (Жан Негулеско, драма, мелодрама, п ...
  • Холм / The Hill (Сидни Люмет, драма, военный, 1965) [WEB-DL 720p, Профессио ...
  • Энн из Зеленых крыш / Anne of Green Gables (Кевин Салливан, драма, семейный ...
  • Одинокая женщина / Kobieta samotna (Агнешка Холланд, драма, 1981) [DVDRip, ...
  • Система безопасности / Fail-Safe (Сидни Люмет, триллер, драма, приключения, ...
  • Ко мне, Мухтар! (Семен Туманов, В. Тиунова, драма, 1964) [DVDRip, Не требуе ...
  • Свидетель обвинения / Witness for the Prosecution (Билли Уайлдер, драма, де ...
  • Привет вам от гориллы / Le gorille vous salue bien (Бернар Бордери, боевик, ...
  • Вердикт / The Verdict (Сидни Люмет, Драма, 1982) [HDTVRip, Профессиональный ...
  • Партизанская эскадрилья / Partizanska eskadrila (Хайрудин Крвавац, драма, в ...
  • Румбурак / Rumburak (Вацлав Ворличек, семейный, 1985) [DVDRip, Любительский ...
  • След кота (Уильям А. Уэллмен, драма, вестерн, 1954) [DVDRip, Любительский ( ...
  • Преждевременное погребение / Premature Burial (Роджер Корман, ужасы, драма, ...
  • Собачий полдень / Dog Day Afternoon (Сидни Люмет / Sidney Lumet, Криминал, ...
  • Оскорбление / The Offence (Сидни Люмет, триллер, драма, криминал, 1972) [DV ...
  • Земля Фараонов / Land of the Pharaohs (Ховард Хоукс, драма, история, 1955) ...
  • Нет мира под оливами / Non ce pace tra gli ulivi (Джузеппе де Сантис, драма ...
  • Остров сокровищ / Treasure Island (Байрон Хэскин, приключения, семейный, 19 ...
  • Преследуемый / Pursued (Рауль Уолш, триллер, вестерн, 1947) [DVDRip, Любите ...
  • Розенкранц и Гильденштерн мертвы / Rosencrantz & Guildenstern Are Dead (Том ...
  • Урок любви / En lektion i karlek (Ингмар Бергман, драма, комедия, 1954) [DV ...
  • Как раздражать людей / How to Irritate People (Йен Фордайсе, комедия, 1969) ...
  • Эмбрион охотится тайно / Taiji ga mitsuryo suru toki (Кодзи Вакамацу, драма ...
  • Медведи и я / The Bears and I (Бернард МакЭвети, драма, семейный, 1974) [DV ...
  • Информация
    Посетители, находящиеся в группе Гости, не могут оставлять комментарии к данной публикации.