вход на сайт

Имя пользователя :
Пароль :

Восстановление пароля Регистрация
Урок любви / En lektion i karlek (Ингмар Бергман, драма, комедия, 1954) [DVDRip, Любительский (одноголосый, закадровый)+оригинал]
Рейтинг:
(голосов: 1)



[img]{THEME}/images/logopost.png[/img]



Урок любви / En lektion i karlek

Год выпуска: 1954
Страна: Швеция
Производство: Svensk Filmindustri (SF) AB
Жанр: драма, комедия

Режиссёр: Ингмар Бергман
В ролях: Ева Дальбек, Гуннар Бьёрнстранд, Ивонн Ломбард, Харриет Андерссон, Оке Грёнберг, Olof Winnerstrand, Биргитте Реймер, Йон Эльфстрём, Рени Бьёрлинг, Дагмар Эббесен

Перевод: Любительский (одноголосый, закадровый)+оригинал
Субтитры: Отсутствуют

Описание:
После 15 лет совместной жизни супруги расходятся, но затем, благодаря счастливой случайности вновь обретают гармонию друг с другом…


Дополнительно:
MediaInfo ▼Text
Общее
Полное имя :K:РАЗДАЧАИНГМАР БЕРГМАНУрок любвиUrok_ljubvi.avi
Формат :AVI
Размер :1.33 GiB
Продолжительность :01:31:56.328
Общий поток :2 075 Kbps
Программа кодирования :VirtualDubMod 1.5.10.2 (build 2540/release)
Библиотека кодирования :VirtualDubMod build 2540/release

Видео
Идентификатор :0
Формат :MPEG-4 Visual
Профиль формата :Advanced [email protected]
Параметр BVOP формата :1
Параметр Qpel формата :No
Параметр GMC формата :0
Параметр Matrix формата :Custom
Идентификатор кодека :XVID
Продолжительность :1h 31mn 56s 320ms
Битрейт :1 805 Kbps
Ширина :720 pixels
Высота :544 pixels
Соотношение сторон :1.324
Частота кадров :25.000 fps
Глубина цвета :8 bits
Подвыборка цветности :4:2:0
Цветовое пространство :YUV
Тип развертки :Progressive
Бит/(Пиксели*Кадры) :0.184
Размер потока :1.16 GiB (87%)
Библиотека кодирования :XviD0046

Аудио #1
Идентификатор :1
Формат :MPEG Audio
Идентификатор кодека :55
Продолжительность :01:31:55.176
Вид битрейта :Constant
Битрейт :128 Kbps
Канал(ы) :2 channels
Частота :48.0 KHz
Метод сжатия :Lossy
Размер потока :84.2 MiB (6%)

Аудио #2
Идентификатор :2
Формат :MPEG Audio
Идентификатор кодека :55
Пр
a18bbcdf30d30c1a7802f4a240374f812ec95090Урок любви / En lektion i karlek (Ингмар Бергман, драма, комедия, 1954) [DVDRip, Любительский (одноголосый, закадровый)+оригинал] Урок любви / En lektion i karlek (Ингмар Бергман, драма, комедия, 1954) [DVDRip, Любительский (одноголосый, закадровый)+оригинал] " />

Аплоадер: Админ, дата: 3-11-2012, 02:02, торрент скачан: 359 раз

Понравилась раздача? Посмотрите эти:
  • Земляничная поляна / Smultronstället (Ингмар Бергман, драма, 1957) [BDRip, ...
  • Одинокая женщина / Kobieta samotna (Агнешка Холланд, драма, 1981) [DVDRip, ...
  • Свидетель обвинения / Witness for the Prosecution (Билли Уайлдер, драма, де ...
  • Летняя игра / Sommarlek (Ингмар Бергман, драма, мелодрама, 1951) [BDRip 720 ...
  • Из жизни марионеток / Aus Dem Leben Der Marionetten (Ингмар Бергман, драма, ...
  • Дождь над нашей любовью / Det regnar pе vеr kдrlek (Ингмар Бергман, драма, ...
  • Партизанская эскадрилья / Partizanska eskadrila (Хайрудин Крвавац, драма, в ...
  • Лето с Моникой / Sommaren med Monika (Ингмар Бергман, драма, мелодрама, 195 ...
  • След кота (Уильям А. Уэллмен, драма, вестерн, 1954) [DVDRip, Любительский ( ...
  • Преждевременное погребение / Premature Burial (Роджер Корман, ужасы, драма, ...
  • Лиловая равнина / The Purple Plain (Роберт Пэрриш, боевик, драма, приключен ...
  • Осенняя соната / Hostsonaten (Ингмар Бергман, драма, музыка, 1978) [DVDRip, ...
  • Лето с Моникой / Sommaren med Monika (Ингмар Бергман, драма, мелодрама, 195 ...
  • Причастие / Nattvardsgдsterna (Ингмар Бергман, драма, 1962) [DVDRip, Профес ...
  • Молчание / Tystnaden (Ингмар Бергман, драма, 1963) [DVDRip, Профессиональны ...
  • Вечер шутов / Gycklarnas afton (Ингмар Бергман, драма, 1953) [DVDRip, Профе ...
  • Нет мира под оливами / Non ce pace tra gli ulivi (Джузеппе де Сантис, драма ...
  • Ритуал / Riten (Ингмар Бергман, драма, 1969) [DVDRip, Профессиональный (одн ...
  • Розенкранц и Гильденштерн мертвы / Rosencrantz & Guildenstern Are Dead (Том ...
  • Дьявольское око / Djдvulens цga (Ингмар Бергман, фэнтези, драма, комедия, 1 ...
  • Ростовщик / The Pawnbroker (Сидни Люмет, драма, 1964) [DVDRip, Любительский ...
  • Римлянка / La romana (Луиджи Дзампа, драма, 1954) [DVDRip, Любительский (од ...
  • Как раздражать людей / How to Irritate People (Йен Фордайсе, комедия, 1969) ...
  • Улыбки летней ночи / Sommarnattens leende (Ингмар Бергман, мелодрама, комед ...
  • Медведи и я / The Bears and I (Бернард МакЭвети, драма, семейный, 1974) [DV ...
  • Информация
    Посетители, находящиеся в группе Гости, не могут оставлять комментарии к данной публикации.