вход на сайт

Имя пользователя :
Пароль :

Восстановление пароля Регистрация
Дьявольское око / Djдvulens цga (Ингмар Бергман, фэнтези, драма, комедия, 1960) [DVDRip, Профессиональный (двухголосый закадровый)+оригинал]
Рейтинг:
(голосов: 1)



[img]{THEME}/images/logopost.png[/img]



Дьявольское око / Djдvulens цga

Год выпуска: 1960
Страна: Швеция
Производство: Svensk Filmindustri (SF) AB
Жанр: фэнтези, драма, комедия

Режиссёр: Ингмар Бергман
В ролях: Ярл Кулле, Биби Андерссон, Стиг Яррель, Нильс Поппе, Гертруд Фрид, Sture Lagerwall, Георг Фюнквист, Гуннар Шёберг, Торстен Винги, Аксель Дюберг

Перевод: Профессиональный (двухголосый закадровый)+оригинал
Субтитры: Отсутствуют

Описание:
И вновь Дон Жуан (или как правильно по-испански — Дон Хуан)! Именно его избирает на это раз Сатана своим всевидящим оком, разумеется, не без божьего попущения.


Дополнительно:
MediaInfo ▼Text
Общее
Полное имя :K:РАЗДАЧАИНГМАР БЕРГМАНОко дьяволаOko.djyavola.1960.XviD.DVDRip.avi
Формат :AVI
Размер :1.47 GiB
Продолжительность :01:23:35.544
Общий поток :2 510 Kbps
Программа кодирования :VirtualDubMod 1.5.4.1 (build 2178/release)
Библиотека кодирования :VirtualDubMod build 2178/release

Видео
Идентификатор :0
Формат :MPEG-4 Visual
Профиль формата :Advanced [email protected]
Параметр BVOP формата :1
Параметр Qpel формата :No
Параметр GMC формата :0
Параметр Matrix формата :Custom
Идентификатор кодека :XVID
Продолжительность :1h 23mn 35s 544ms
Битрейт :2 116 Kbps
Ширина :720 pixels
Высота :544 pixels
Соотношение сторон :1.324
Частота кадров :29.970 fps
Глубина цвета :8 bits
Подвыборка цветности :4:2:0
Цветовое пространство :YUV
Тип развертки :Progressive
Бит/(Пиксели*Кадры) :0.180
Размер потока :1.24 GiB (84%)
Библиотека кодирования :XviD0050

Аудио #1
Идентификатор :1
Формат :AC-3
Формат/Информация :Audio Coding 3
Идентификатор кодека :2000
Продолжительность :01:23:35.520
Вид битрейта :Constant
Битрейт :192 Kbps
Канал(ы) :2 channels
Расположение каналов :Front: L R
Частота :48.0 KHz
Битовая глубина :16 bits
Метод сжатия :Lossy
Размер потока :115 MiB (8%)
Я
92af7e576b6ed095108ef837745273016c8750d2Дьявольское око / Djдvulens цga (Ингмар Бергман, фэнтези, драма, комедия, 1960) [DVDRip, Профессиональный (двухголосый закадровый)+оригинал] Дьявольское око / Djдvulens цga (Ингмар Бергман, фэнтези, драма, комедия, 1960) [DVDRip, Профессиональный (двухголосый закадровый)+оригинал] " />

Аплоадер: Админ, дата: 3-11-2012, 01:59, торрент скачан: 359 раз

Понравилась раздача? Посмотрите эти:
  • Адуя и ее подруги / Adua e le compagne (Антонио Пьетранджели, драма, комеди ...
  • Земляничная поляна / Smultronstället (Ингмар Бергман, драма, 1957) [BDRip, ...
  • Драма (Герман Ливанов, короткометражка, комедия, 1960) [DVDRip, Не требуетс ...
  • Обнаженная / Naked (Майк Ли, драма, комедия, 1993) [DVDRip, (2х)Профессиона ...
  • Сладкая жизнь / La dolce vita (Федерико Феллини, драма, комедия, 1959) [DVD ...
  • Из жизни марионеток / Aus Dem Leben Der Marionetten (Ингмар Бергман, драма, ...
  • Дождь над нашей любовью / Det regnar pе vеr kдrlek (Ингмар Бергман, драма, ...
  • С террасы / From the Terrace (Марк Робсон, драма, мелодрама, 1960) [DVDRip, ...
  • Лето с Моникой / Sommaren med Monika (Ингмар Бергман, драма, мелодрама, 195 ...
  • Седьмая Печать / Det sjunde inseglet / The Seventh Seal (Ингмар Бергман, фэ ...
  • Город пиратов / La ville des pirates (Рауль Руис, фэнтези, драма, 1983) [DV ...
  • Осенняя соната / Hostsonaten (Ингмар Бергман, драма, музыка, 1978) [DVDRip, ...
  • Лето с Моникой / Sommaren med Monika (Ингмар Бергман, драма, мелодрама, 195 ...
  • Причастие / Nattvardsgдsterna (Ингмар Бергман, драма, 1962) [DVDRip, Профес ...
  • Молчание / Tystnaden (Ингмар Бергман, драма, 1963) [DVDRip, Профессиональны ...
  • Вечер шутов / Gycklarnas afton (Ингмар Бергман, драма, 1953) [DVDRip, Профе ...
  • К северу от Аляски / North to Alaska (Генри Хэтэуэй, вестерн, комедия, 1960 ...
  • После репетиции / Efter repetitionen (Ингмар Бергман, драма, 1984) [DVDRip, ...
  • Ритуал / Riten (Ингмар Бергман, драма, 1969) [DVDRip, Профессиональный (одн ...
  • В то же время, в следующем году / Same Time, Next Year (Роберт Маллиган, др ...
  • Девичий источник / Jungfrukallan (Ингмар Бергман, драма, криминал, 1960) [D ...
  • Урок любви / En lektion i karlek (Ингмар Бергман, драма, комедия, 1954) [DV ...
  • Убей! / Kiru (Кихачи Окамото, боевик, драма, комедия, 1968) [DVDRip, Профес ...
  • Улыбки летней ночи / Sommarnattens leende (Ингмар Бергман, мелодрама, комед ...
  • Что навеял ветер / Something in the Wind (Ирвинг Пичел, мюзикл, комедия, 19 ...
  • Информация
    Посетители, находящиеся в группе Гости, не могут оставлять комментарии к данной публикации.