вход на сайт

Имя пользователя :
Пароль :

Восстановление пароля Регистрация
Братья по крови / Blutsbruder (Вернер В. Валльрот, драма, вестерн, 1975) [DVDRip, Профессиональный (полное дублирование)]
Рейтинг:
(голосов: 1)



[img]{THEME}/images/logopost.png[/img]



Братья по крови / Blutsbruder

Год выпуска: 1975
Страна: Германия
Производство: Киностудия Дефа
Жанр: драма, вестерн

Режиссёр: Вернер В. Валльрот
В ролях: Дин Рид, Гойко Митич, Гизела Фройденберг, Йёрг Панкнин, Корнел Испас, Тома Димитру, Юрие Дарие, Сина Фидлер, Маня Александру, Евгения Босэнчяну

Перевод: Профессиональный (полное дублирование)
Субтитры: Отсутствуют

Описание:
Американский солдат, осуждающий истребление индейцев, оставляет армию и переходит на их сторону. Он становится мужем прекрасной индианки, скрепляет кровью свою дружбу с вождем племени и вместе с ним возглавляет восстание против американцев.


Дополнительно:
MediaInfo ▼Text
Общее
Полное имя :J:Кинокопилка.РуРАЗДАЧАБратья по кровиBratya.Po.Krovi.1975.XviD.DVDRip.avi
Формат :AVI
Размер :1.37 GiB
Продолжительность :01:22:02.280
Общий поток :2 395 Kbps
Программа кодирования :VirtualDubModRus 1.5.10.2 (build 2540/release)
Библиотека кодирования :VirtualDubMod build 2540/release

Видео
Идентификатор :0
Формат :MPEG-4 Visual
Профиль формата :Advanced [email protected]
Параметр BVOP формата :1
Параметр Qpel формата :No
Параметр GMC формата :0
Параметр Matrix формата :Custom
Идентификатор кодека :XVID
Продолжительность :1h 22mn 2s 280ms
Битрейт :2 194 Kbps
Ширина :720 pixels
Высота :416 pixels
Соотношение сторон :1.731
Частота кадров :25.000 fps
Глубина цвета :8 bits
Подвыборка цветности :4:2:0
Цветовое пространство :YUV
Тип развертки :Progressive
Бит/(Пиксели*Кадры) :0.293
Размер потока :1.26 GiB (92%)
Библиотека кодирования :XviD0047

Аудио #1
Идентификатор :1
Формат :AC-3
Формат/Информация :Audio Coding 3
Идентификатор кодека :2000
Продолжительность :01:22:02.280
Вид битрейта :Constant
Битрейт :192 Kbps
Канал(ы) :2 channels
Частота :48.0 KHz
Метод сжатия :Lossy
Размер потока :113 MiB (8%)
Язык &nbs
ace37a34acbd024e16fd219cb40d95dcecfa1e2eБратья по крови / Blutsbruder (Вернер В. Валльрот, драма, вестерн, 1975) [DVDRip, Профессиональный (полное дублирование)] Братья по крови / Blutsbruder (Вернер В. Валльрот, драма, вестерн, 1975) [DVDRip, Профессиональный (полное дублирование)] " />

Аплоадер: Админ, дата: 28-10-2012, 00:26, торрент скачан: 359 раз

Понравилась раздача? Посмотрите эти:
  • Айрик (Генрих Малян, драма, семейный, 1972) [DVDRip, Профессиональный (пол ...
  • Кукарача (Кети Долидзе, Сико Долидзе, драма, 1982) [DVDRip, Профессиональны ...
  • Каштанка (Роман Балаян, приключения, 1975) [DVDRip, Не требуется]
  • Всадник без головы (Владимир Вайншток, мелодрама, приключения, вестерн, 197 ...
  • Гикор (Сергей Исраелян, драма, семейный, 1982) [DVDRip, Профессиональный (п ...
  • Гнездо на ветру (Олав Неуланд, драма, 1979) [DVDRip, Профессиональный (полн ...
  • Тоска (Фрунзе Довлатян, драма, 1990) [DVDRip, Профессиональный (полное дубл ...
  • Тайна горного подземелья (Лев Мирский, детский, приключения, 1975) [DVDRip, ...
  • Стрелы Робин Гуда (Сергей Тарасов, боевик, приключения, история, 1975) [DVD ...
  • Украденный поезд (Владимир Янчев, драма, 1971) [DVDRip, Профессиональный (п ...
  • Последняя жертва (Петр Тодоровский, драма, мелодрама, 1975) [DVDRip, Не тре ...
  • Афоня (Георгий Данелия, драма, мелодрама, комедия, 1975) [DVDRip, Не требуе ...
  • До последней капли крови (2 части из 2) / Do krwi ostatiej (Ежи Гоффман, др ...
  • Шампунь / Shampoo (Хэл Эшби, драма, мелодрама, 1975) [HDTVRip, Профессионал ...
  • Черная гора (Александр Згуриди, драма, семейный, 1972) [DVDRip, Профессиона ...
  • Соло для слона с оркестром (2 части из 2) (Ольдржих Липский, комедия, семей ...
  • Субботний вечер / Shabat sagamo (Рамаз Шарабидзе, короткометражка, комедия, ...
  • След кота (Уильям А. Уэллмен, драма, вестерн, 1954) [DVDRip, Любительский ( ...
  • Будучи там / Being There (Хэл Эшби, драма, комедия, 1979) [DVDRip, Професси ...
  • Мальчишки с улицы Пал / A pal-utcai fiuk (Золтан Фабри, драма, 1968) [DVDRi ...
  • Грек Зорба / Alexis Zorbas (Михалис Какояннис, драма, приключения, 1964) [D ...
  • Сокровище Серебряного озера / Der Schatz im Silbersee (Харальд Райнль, прик ...
  • Огни рампы / Limelight (Чарльз Чаплин, драма, мелодрама, комедия, музыка, 1 ...
  • Великий Уолдо Пеппер / The Great Waldo Pepper (Джордж Рой Хилл, драма, прик ...
  • Расплата кровью / The Man Who Came Back (Глен Питре, боевик, драма, вестерн ...
  • Информация
    Посетители, находящиеся в группе Гости, не могут оставлять комментарии к данной публикации.