вход на сайт

Имя пользователя :
Пароль :

Восстановление пароля Регистрация
Вдова Кудер / La veuve Couderc (Пьер Гранье-Дефер, боевик, драма, мелодрама, 1971) [DVDRip, Профессиональный (двухголосый, закадровый)]
Рейтинг:
(голосов: 1)



[img]{THEME}/images/logopost.png[/img]



Вдова Кудер / La veuve Couderc

Год выпуска: 1971
Страна: Франция, Италия
Производство: Lira Films, Pegaso Cinematografica
Жанр: боевик, драма, мелодрама

Режиссёр: Пьер Гранье-Дефер
В ролях: Ален Делон, Симона Синьоре, Оттавия Пикколо, Жан Тиссье, Моник Шометт, Боби Лапойнт, Жан-Пьер Кастальди, Пьер Колле, Робер Фавар, Андре Руйе

Перевод: Профессиональный (двухголосый, закадровый)
Субтитры: Отсутствуют

Описание:
Франция. 1936 год. Молодой человек идет по дороге. Его зовут Жан. Кто он и откуда пришел, не известно. Жан видит маленькую ферму и решает остановиться.

Хозяйка, вдова Кудер, предлагает ему кров, стол и работу. Ей нравится Жан, и она довольна новым знакомством.

Единственное, с чем она не согласна мириться — это визиты потаскушки Фелисии. Но Жан не интересуется мнением вдовы Кудер.


Дополнительно:
MediaInfo ▼Text
Общее
Полное имя :D:Вдова КудерVdova-Kuder.avi
Формат :AVI
Размер :1 003 MiB
Продолжительность :01:25:28.720
Общий поток :1 641 Kbps
Программа кодирования :XviD4PSP 6.0 / 53.6.0

Видео
Идентификатор :0
Формат :MPEG-4 Visual
Профиль формата :Advanced [email protected]
Параметр BVOP формата :1
Параметр Qpel формата :No
Параметр GMC формата :0
Параметр Matrix формата :Default (H.263)
Идентификатор кодека :XVID
Продолжительность :1h 25mn 28s 720ms
Битрейт :1 500 Kbps
Ширина :720 pixels
Высота :424 pixels
Соотношение сторон :1.698
Частота кадров :25.000 fps
Глубина цвета :8 bits
Подвыборка цветности :4:2:0
Цветовое пространство :YUV
Тип развертки :Progressive
Бит/(Пиксели*Кадры) :0.197
Размер потока :917 MiB (91%)
Библиотека кодирования :XviD0064

Аудио #1
Идентификатор :1
Формат :MPEG Audio
Идентификатор кодека :55
Продолжительность :01:25:28.560
Вид битрейта :Constant
Битрейт :128 Kbps
Канал(ы) :2 channels
Частота :48.0 KHz
Метод сжатия :Lossy
Размер потока :78.3 MiB (8%)Тех. данные:
Качество:DVDRip
Продолжительность:&nbs
0623c1407eb67c43a2c5bb63aa672fe1c4763298Вдова Кудер / La veuve Couderc (Пьер Гранье-Дефер, боевик, драма, мелодрама, 1971) [DVDRip, Профессиональный (двухголосый, закадровый)] Вдова Кудер / La veuve Couderc (Пьер Гранье-Дефер, боевик, драма, мелодрама, 1971) [DVDRip, Профессиональный (двухголосый, закадровый)] " />

Аплоадер: Админ, дата: 27-10-2012, 23:50, торрент скачан: 359 раз

Понравилась раздача? Посмотрите эти:
  • Воздыхатель / Le soupirant (Пьер Этекс, комедия, 1962) [DVDRip, Профессиона ...
  • Вечерние посетители / Les visiteurs du soir (Марсель Карне, фэнтези, драма, ...
  • Босс / Le Pacha (Жорж Лотнер, драма, криминал, 1968) [DVDRip, Профессиональ ...
  • Самурай / Le samourai (Жан-Пьер Мельвиль, триллер, драма, криминал, детекти ...
  • Человек, который смеется / Lhomme qui rit (Жан-Пьер Амери, драма, 2012) [DV ...
  • Верь мне / Chura Liya Hai Tumne (Сангит Сиван, боевик, триллер, драма, мело ...
  • Гнев Ахилла / Lira di Achille (Марино Гиролами, боевик, драма, мелодрама, в ...
  • Декамерон / Il Decameron (Пьер Паоло Пазолини, комедия, драма, 1970) [DVDRi ...
  • Кентерберийские рассказы / I racconti di Canterbury (Пьер Паоло Пазолини, к ...
  • Карманник / Pickpocket (Робер Брессон, триллер, драма, криминал, 1959) [DVD ...
  • К нам, маленькие англичанки! / A nous les petites Anglaises! (Мишель Ланг, ...
  • Мой американский дядюшка / Mon oncle dAmerique (Ален Рене, драма, мелодрама ...
  • Процесс Жанны Д Арк / Proces de Jeanne dArc (Робер Брессон, драма, военный, ...
  • Свадебный торт / Pièce montée(Денис Гранье-Дефер / комедия, мелодрама / 201 ...
  • Я стеснительный, но я лечусь / Je suis timide... mais je me soigne (Пьер Ри ...
  • Рассеянный / Le distrait (Пьер Ришар, комедия, 1970) [DVDRip, Профессиональ ...
  • Тайна фермы Мессе / La Horse (Пьер Гранье-Дефер, триллер, криминал, 1970) [ ...
  • Неверные / Le infedeli (Марио Моничелли, Стено, драма, комедия, 1953) [DVDR ...
  • Бог знает, мистер Аллисон / Heaven Knows, Mr. Allison (Джон Хьюстон, боевик ...
  • Принцесса Клевская / La princesse de Cleves (Жан Деланнуа, драма, мелодрама ...
  • Пески Иво Джимы / Sands of Iwo Jima (Аллан Дуон, боевик, драма, мелодрама, ...
  • Скандал в Клошмерле / Clochemerle (Пьер Шеналь, комедия, 1948) [DVDRip, Про ...
  • Уик-энд / Week End (Жан-Люк Годар, драма, комедия, 1967) [DVDRip, Профессио ...
  • Убей! / Kiru (Кихачи Окамото, боевик, драма, комедия, 1968) [DVDRip, Профес ...
  • Близнец / Le jumeau (Ив Робер, Комедия, 1984) [DVDRip, Профессиональный (мн ...
  • Информация
    Посетители, находящиеся в группе Гости, не могут оставлять комментарии к данной публикации.