вход на сайт

Имя пользователя :
Пароль :

Восстановление пароля Регистрация
Рай и ад / Tengoku to jigoku (Акира Куросава, триллер, драма, криминал, 1963) [HDRip, Профессиональный (двухголосый, закадровый)]
Рейтинг:
(голосов: 1)



[img]{THEME}/images/logopost.png[/img]



Рай и ад / Tengoku to jigoku

Год выпуска: 1963
Страна: Япония
Производство: Kurosawa Production Co. Ltd., Toho Company
Жанр: триллер, драма, криминал

Режиссёр: Акира Куросава
В ролях: Тосиро Мифунэ, Тацуя Накадаи, Кёко Кагава, Татсуя Михаши, Исао Кимура, Кэндзиро Ишияма

Перевод: Профессиональный (двухголосый, закадровый)
Субтитры: Отсутствуют

Описание:
Преуспевающий бизнесмен, в решающий момент, должен решить для себя, заплатит ли он выкуп похитителям, которые по ошибке выкрали не его сына, а сынишку человека, работающего у него шофером.


Дополнительно:
MediaInfo ▼Text
Общее
Полное имя :L:РАЗДАЧАРай и ад engoku to jigoku.avi
Формат :AVI
Размер :1.46 GiB
Продолжительность :02:23:41.038
Общий поток :1 453 Kbps
Программа кодирования :VirtualDubMod 1.5.10.3 | www.virtualdub-fr.org || (build 2550/release)
Библиотека кодирования :VirtualDubMod build 2550/release

Видео
Идентификатор :0
Формат :MPEG-4 Visual
Профиль формата :Advanced [email protected]
Параметр BVOP формата :1
Параметр Qpel формата :No
Параметр GMC формата :0
Параметр Matrix формата :Custom
Идентификатор кодека :XVID
Продолжительность :2h 23mn 41s 29ms
Битрейт :1 252 Kbps
Ширина :720 pixels
Высота :304 pixels
Соотношение сторон :2.368
Частота кадров :23.976 fps
Глубина цвета :8 bits
Подвыборка цветности :4:2:0
Цветовое пространство :YUV
Тип развертки :Progressive
Бит/(Пиксели*Кадры) :0.238
Размер потока :1.26 GiB (86%)
Библиотека кодирования :XviD0063

Аудио #1
Идентификатор :1
Формат :AC-3
Формат/Информация :Audio Coding 3
Идентификатор кодека :2000
Продолжительность :02:23:41.038
Вид битрейта :Constant
Битрейт :192 Kbps
Канал(ы) :2 channels
Расположение каналов :Front: L R
Частота :48.0 KHz
Битовая глубина :16 bits
Метод сжатия :Lossy
Размер потока :197 MiB (13%)Тех
e1c302fb4b9ff3451a609b2eced746041cf36b94Рай и ад / Tengoku to jigoku (Акира Куросава, триллер, драма, криминал, 1963) [HDRip, Профессиональный (двухголосый, закадровый)] Рай и ад / Tengoku to jigoku (Акира Куросава, триллер, драма, криминал, 1963) [HDRip, Профессиональный (двухголосый, закадровый)] " />

Аплоадер: Админ, дата: 7-10-2012, 17:46, торрент скачан: 359 раз

Понравилась раздача? Посмотрите эти:
  • Выбывший из игры / Odd Man Out (Кэрол Рид, фильм-нуар, триллер, драма, мело ...
  • Гарри-карманник / Harry in Your Pocket (Брюс Геллер, драма, комедия, кримин ...
  • Красная борода / Akahige (Акира Куросава, драма, 1965) [BDRip, Профессионал ...
  • Расёмон / Rashômon (Акира Куросава, Драма, криминал, детектив, 1950) [BDRip ...
  • На дне / Donzoko (Акира Куросава, драма, 1957) [BDRip 720p, Авторский (Одно ...
  • Кагемуся: Тень воина / Kagemusha (Акира Куросава, драма, военный, история, ...
  • Cемь самураев / Shichinin no samurai (Акира Куросава, боевик, драма, приклю ...
  • Без имени / Sin nombre (Кэри Фукунага, триллер, драма, криминал, приключени ...
  • Процесс Жанны Д Арк / Proces de Jeanne dArc (Робер Брессон, драма, военный, ...
  • Расёмон / Rashomon (Акира Куросава, драма, криминал, детектив, 1950) [DVDRi ...
  • Тихая дуэль / Shizukanaru ketto (Акира Куросава, драма, 1949) [BDRip 720p, ...
  • Рай и ад / Tengoku to jigoku (Акира Куросава, триллер, драма, криминал, 196 ...
  • Тристана / Tristana (Луис Бунюэль, Драма, 1970) [DVDRip, Профессиональный ( ...
  • Бездомный пес / Nora inu (Акира Куросава, фильм-нуар, триллер, драма, крими ...
  • Плохие спят спокойно / Warui yatsu hodo yoku nemuru (Акира Куросава, трилле ...
  • Телохранитель 2: Отважный Сандзюро / Tsubaki Sanjuro (Акира Куросава, боеви ...
  • Кагемуся: Тень воина / Kagemusha (Акира Куросава, драма, военный, история, ...
  • Тихая дуэль / Shizukanaru ketto (Акира Куросава, драма, 1949) [DVDRip, Проф ...
  • Трон в крови / Kumonosu-jo (Акира Куросава, драма, 1957) [DVDRip, Профессио ...
  • Убей! / Kiru (Кихачи Окамото, боевик, драма, комедия, 1968) [DVDRip, Профес ...
  • Информация
    Посетители, находящиеся в группе Гости, не могут оставлять комментарии к данной публикации.