вход на сайт

Имя пользователя :
Пароль :

Восстановление пароля Регистрация
Приключения канонира Доласа 2 / Jak rozpetalem druga wojne swiatowa (Тадеуш Хмелевский, комедия, военный, 1969) [DVDRip, Профессиональный (многоголосый, закадровый)]
Рейтинг:
(голосов: 1)



[img]{THEME}/images/logopost.png[/img]



Приключения канонира Доласа 2 / Jak rozpetalem druga wojne swiatowa

Год выпуска: 1969
Страна: Польша
Производство: Студия «ПРФЗФ»
Жанр: комедия, военный

Режиссёр: Тадеуш Хмелевский
В ролях: Мариан Кочиняк, Джанина Боронска, Адам Киприан, Виргилиуш Грынь, Здзислав Кузьняр, Юзеф Лодыньский, Ярослав Скульский, Томаш Заливский ,Эльжбета Старостецка ,Анджей Гавроньский

Перевод: Профессиональный (многоголосый, закадровый)
Субтитры: Отсутствуют

Описание:
1 сентября 1939 года. Польский солдат Франтишек Долас, проспав свою станцию, просыпается ночью в поезде на польско-немецкой границе. С его выстрела в немецкого офицера, которого Долас принял за диверсанта, в результате комичных совпадений, начинается не только Вторая мировая война, но и цепь невероятных приключений в немецком лагере для военнопленных, Австрии, Африке, Югославии и в Польше, на суше, в море и в воздухе.


Дополнительно:
MediaInfo ▼Text
Общее
Полное имя :L:РАЗДАЧАПриключения канонира ДоласаПриключения канонира Доласа 2.1969.Комедия.DVDRip.aviPriklucheniya.kanonira.Dolasa.2.avi
Формат :AVI
Размер :1.14 GiB
Продолжительность :01:54:19.000
Общий поток :1 425 Kbps

Видео
Идентификатор :0
Формат :MPEG-4 Visual
Параметр BVOP формата :Yes
Параметр Qpel формата :No
Параметр GMC формата :0
Параметр Matrix формата :Default (H.263)
Идентификатор кодека :DX50
Продолжительность :1h 54mn 19s 0ms
Битрейт :1 224 Kbps
Ширина :720 pixels
Высота :576 pixels
Соотношение сторон :1.250
Частота кадров :25.000 fps
Глубина цвета :8 bits
Подвыборка цветности :4:2:0
Цветовое пространство :YUV
Тип развертки :Progressive
Бит/(Пиксели*Кадры) :0.118
Размер потока :1 000 MiB (86%)
Библиотека кодирования :DivX503b1328p

Аудио #1
Идентификатор :1
Формат :MPEG Audio
Идентификатор кодека :55
Продолжительность :01:54:18.977
Вид битрейта :Constant
Битрейт :192 Kbps
Канал(ы) :2 channels
Частота :44.1 KHz
Метод сжатия :Lossy
Размер потока :157 MiB (13%)Тех. данные:
Качество:DVDRip
Продолжительность:01:54:10 час

Ф
94645ad8b47a73a81753ea4ceddefd039334f21eПриключения канонира Доласа 2 / Jak rozpetalem druga wojne swiatowa (Тадеуш Хмелевский, комедия, военный, 1969) [DVDRip, Профессиональный (многоголосый, закадровый)] Приключения канонира Доласа 2 / Jak rozpetalem druga wojne swiatowa (Тадеуш Хмелевский, комедия, военный, 1969) [DVDRip, Профессиональный (многоголосый, закадровый)] " />

Аплоадер: Админ, дата: 29-09-2012, 08:09, торрент скачан: 359 раз

Понравилась раздача? Посмотрите эти:
  • Иметь и не иметь / To Have and Have Not (Ховард Хоукс, триллер, мелодрама, ...
  • Папа Гусь / Father Goose (Ральф Нельсон, мелодрама, комедия, приключения, в ...
  • Князь Игорь (Роман Тихомиров, мюзикл, приключения, 1969) [DVDRip, Не требуе ...
  • Великая иллюзия / La grande illusion (Жан Ренуар, драма, военный, 1937) [DV ...
  • Андерграунд / Underground (Эмир Кустурица, драма, комедия, военный, 1995) [ ...
  • Папа Гусь / Father Goose (Ральф Нельсон, мелодрама, комедия, приключения, в ...
  • Адъютант его превосходительства (5 частей из 5) (Евгений Ташков, мелодрама, ...
  • Чудесное спасение белых скакунов / Miracle of the White Stallions (Артур Хи ...
  • Таинственный остров / Остров приключений / Mysterious Island (Сай Эндфилд, ...
  • Вальсирующие / Les valseuses (Бертран Блие, драма, комедия, криминал, 1966) ...
  • Крестоносцы / Krzyzacy (Александр Форд, драма, мелодрама, приключения, воен ...
  • Бравый солдат Швейк / Dobry vojak Svejk (Карел Стеклы, комедия, военный, 19 ...
  • Любовь и смерть / Love and Death (Вуди Аллен, комедия, военный, 1975) [DVDR ...
  • Мы поедем в Дювиль / Nous irons a Deauville (Френсис Риго, комедия, 1962) [ ...
  • На серебряной планете / Na srebrnym globie (Анджей Жулавски, фантастика, фэ ...
  • Бог знает, мистер Аллисон / Heaven Knows, Mr. Allison (Джон Хьюстон, боевик ...
  • Приключения канонира Доласа / Jak rozpetalem druga wojne swiatowa (Тадеуш Х ...
  • Русские идут! Русские идут! / The Russians Are Coming the Russians Are Comi ...
  • Где генерал? / Gdzie jest general… (Тадеуш Хмелевский, комедия, военный, 19 ...
  • Девичий заговор / Rzeczpospolita babska (Хероним Пшибыл, комедия, 1969) [DV ...
  • Млечный путь / La voie lactee (Луис Бунюэль, драма, комедия, 1969) [DVDRip, ...
  • Охота на мух / Polowanie na muchy (Анджей Вайда, комедия, 1969) [DVDRip, Пр ...
  • Хеллоу, Долли! / Hello, Dolly! (Джин Келли, мюзикл, мелодрама, комедия, сем ...
  • Как раздражать людей / How to Irritate People (Йен Фордайсе, комедия, 1969) ...
  • Бессмертная тетушка / Nesmrtelna teta (Зденек Зеленка, комедия, 1993) [DVDR ...
  • Информация
    Посетители, находящиеся в группе Гости, не могут оставлять комментарии к данной публикации.