вход на сайт

Имя пользователя :
Пароль :

Восстановление пароля Регистрация
Приключения канонира Доласа / Jak rozpetalem druga wojne swiatowa (Тадеуш Хмелевский, приключения, комедия, 1969) [DVDRip, Профессиональный (одноголосый, закадровый)]
Рейтинг:
(голосов: 1)



[img]{THEME}/images/logopost.png[/img]



Приключения канонира Доласа / Jak rozpetalem druga wojne swiatowa

Год выпуска: 1969
Страна: Польша
Производство: Студия «ПРФЗФ»
Жанр: приключения, комедия

Режиссёр: Тадеуш Хмелевский
В ролях: Мариан Кочиняк, Джанина Боронска, Адам Киприан, Виргилиуш Грынь, Здзислав Кузьняр, Юзеф Лодыньский, Ярослав Скульский, Томаш Заливский, Эльжбета Старостецка, Анджей Гавроньский

Перевод: Профессиональный (одноголосый, закадровый)
Субтитры: Отсутствуют

Описание:
1 сентября 1939 года. Польский солдат Франтишек Долас, проспав свою станцию, просыпается ночью в поезде на польско-немецкой границе. С его выстрела в немецкого офицера, которого Долас принял за диверсанта, в результате комичных совпадений, начинается не только Вторая мировая война, но и цепь невероятных приключений в немецком лагере для военнопленных, Австрии, Африке, Югославии и в Польше, на суше, в море и в воздухе.


Дополнительно:
MediaInfo ▼Text
Общее
Полное имя :D:РаздачаПриключения канонира ДоласаPriklucheniya.kanonira.Dolasa.avi
Формат :AVI
Размер :1.14 GiB
Продолжительность :01:55:14.360
Общий поток :1 413 Kbps

Видео
Идентификатор :0
Формат :MPEG-4 Visual
Параметр BVOP формата :Yes
Параметр Qpel формата :No
Параметр GMC формата :0
Параметр Matrix формата :Default (H.263)
Идентификатор кодека :DX50
Продолжительность :1h 55mn 14s 360ms
Битрейт :1 211 Kbps
Ширина :720 pixels
Высота :576 pixels
Соотношение сторон :1.250
Частота кадров :25.000 fps
Глубина цвета :8 bits
Подвыборка цветности :4:2:0
Цветовое пространство :YUV
Тип развертки :Progressive
Бит/(Пиксели*Кадры) :0.117
Размер потока :998 MiB (86%)
Библиотека кодирования :DivX503b1328p

Аудио #1
Идентификатор :1
Формат :MPEG Audio
Идентификатор кодека :55
Продолжительность :01:55:14.356
Вид битрейта :Constant
Битрейт :192 Kbps
Канал(ы) :2 channels
Частота :44.1 KHz
Метод сжатия :Lossy
Размер потока :158 MiB (14%)Тех. данные:
Качество:DVDRip
Продолжительность:01:55:10 час

Формат: AVI
Видео кодек: Di
4b72c8bfb44ad949a9af561d5c43aaa4e812e194Приключения канонира Доласа / Jak rozpetalem druga wojne swiatowa (Тадеуш Хмелевский, приключения, комедия, 1969) [DVDRip, Профессиональный (одноголосый, закадровый)] Приключения канонира Доласа / Jak rozpetalem druga wojne swiatowa (Тадеуш Хмелевский, приключения, комедия, 1969) [DVDRip, Профессиональный (одноголосый, закадровый)] " />

Аплоадер: Админ, дата: 29-09-2012, 07:56, торрент скачан: 359 раз

Понравилась раздача? Посмотрите эти:
  • Воздыхатель / Le soupirant (Пьер Этекс, комедия, 1962) [DVDRip, Профессиона ...
  • Князь Игорь (Роман Тихомиров, мюзикл, приключения, 1969) [DVDRip, Не требуе ...
  • Золотые копи / La Collina degli stivali (Джузеппе Колицци, комедия, вестерн ...
  • Папа Гусь / Father Goose (Ральф Нельсон, мелодрама, комедия, приключения, в ...
  • Адъютант его превосходительства (5 частей из 5) (Евгений Ташков, мелодрама, ...
  • Семья Робинзонов (Швейцарская семья Робинзонов) / Swiss Family Robinson (Дж ...
  • Таинственный остров / Остров приключений / Mysterious Island (Сай Эндфилд, ...
  • Крестоносцы / Krzyzacy (Александр Форд, драма, мелодрама, приключения, воен ...
  • Путешествие на Луну / Le Voyage dans la Lune (Жорж Мельес, короткометражка, ...
  • The Beatles: Желтая подводная лодка / Yellow Submarine (Джордж Даннинг, мул ...
  • Солдат удачи / Soldier of Fortune (Эдвард Дмитрык, приключения, драма, 1955 ...
  • Лиловая равнина / The Purple Plain (Роберт Пэрриш, боевик, драма, приключен ...
  • Мюнхгаузен / Munchhausen (Йозеф фон Баку, фэнтези, комедия, приключения, 19 ...
  • На серебряной планете / Na srebrnym globie (Анджей Жулавски, фантастика, фэ ...
  • Бог знает, мистер Аллисон / Heaven Knows, Mr. Allison (Джон Хьюстон, боевик ...
  • Али Баба и 40 разбойников / Ali Baba and the Forty Thieves (Артур Любин, фэ ...
  • Королева викингов / The Viking Queen (Дон Чэффи, боевик, приключения, 1967) ...
  • Круг чистой воды / Ring of Bright Water (Джек Коуффер, драма, комедия, 1969 ...
  • Приключения канонира Доласа 2 / Jak rozpetalem druga wojne swiatowa (Тадеуш ...
  • Где генерал? / Gdzie jest general… (Тадеуш Хмелевский, комедия, военный, 19 ...
  • Девичий заговор / Rzeczpospolita babska (Хероним Пшибыл, комедия, 1969) [DV ...
  • Охота на мух / Polowanie na muchy (Анджей Вайда, комедия, 1969) [DVDRip, Пр ...
  • Как раздражать людей / How to Irritate People (Йен Фордайсе, комедия, 1969) ...
  • Человек диких прерий / Man in the Wilderness (Ричард С. Сарафьян, приключен ...
  • Человек из мрамора / Czlowiek z marmuru (2 части из 2-х) (Анджей Вайда, дра ...
  • Информация
    Посетители, находящиеся в группе Гости, не могут оставлять комментарии к данной публикации.