вход на сайт

Имя пользователя :
Пароль :

Восстановление пароля Регистрация
Принцесса Клевская / La princesse de Cleves (Жан Деланнуа, драма, мелодрама, история, 1961) [DVDRip, Профессиональный (двухголосый)]
Рейтинг:
(голосов: 1)



[img]{THEME}/images/logopost.png[/img]



Принцесса Клевская / La princesse de Cleves

Год выпуска: 1961
Страна: Франция, Италия
Производство: Cinetel, Enalpa Film, Produzioni Cinematografiche Mediterranee (PCM), Silver Films
Жанр: драма, мелодрама, история

Режиссёр: Жан Деланнуа
В ролях: Жан Марэ, Марина Влади, Раймон Жером, Леа Падовани, Анни Дюко, Ален Ферраль, Рене-Мари Поте, Жан-Франсуа Порон, Анри Пего, Пьераль, Иван Доминик, Леа Грэй, Жак Иллинг, Юбер де Лаппарен, Жорж Ликан, Пьер Монкорбье, Жози Стайнер, Энтони Стюарт

Перевод: Профессиональный (двухголосый)
Субтитры: Отсутствуют

Описание:
Действие происходит в XVI веке при дворе французского короля Генриха II. Любовный треугольник включает принца Клевского, его молодую жену и ее возлюбленного, герцога де Немур.


Дополнительно:
MediaInfo ▼Text
Общее
Полное имя :K:РАЗДАЧАПринцесса Клевскаяprincessa_klevskaya.avi
Формат :AVI
Размер :697 MiB
Продолжительность :01:47:11.856
Общий поток :910 Kbps
Программа кодирования :VirtualDubModRus 1.5.10.2 (build 2540/release)
Библиотека кодирования :VirtualDubMod build 2540/release

Видео
Идентификатор :0
Формат :MPEG-4 Visual
Параметр BVOP формата :1
Параметр Qpel формата :No
Параметр GMC формата :0
Параметр Matrix формата :Default (H.263)
Идентификатор кодека :DX50
Продолжительность :1h 47mn 11s 850ms
Битрейт :774 Kbps
Ширина :720 pixels
Высота :304 pixels
Соотношение сторон :2.368
Частота кадров :20.000 fps
Глубина цвета :8 bits
Подвыборка цветности :4:2:0
Цветовое пространство :YUV
Тип развертки :Progressive
Бит/(Пиксели*Кадры) :0.177
Размер потока :593 MiB (85%)
Библиотека кодирования :DivX503b830p

Аудио #1
Идентификатор :1
Формат :MPEG Audio
Идентификатор кодека :55
Продолжительность :01:47:11.856
Вид битрейта :Constant
Битрейт :128 Kbps
Канал(ы) :2 channels
Частота :48.0 KHz
Метод сжатия :Lossy
Размер потока :98.1 MiB (14%)Тех. данные:
Качество:DVDRip
Продолжительность:01:47:16 час

Фо
564013a216aef37ce9e4a6abaf2da294188f1df9Принцесса Клевская / La princesse de Cleves (Жан Деланнуа, драма, мелодрама, история, 1961) [DVDRip, Профессиональный (двухголосый)] Принцесса Клевская / La princesse de Cleves (Жан Деланнуа, драма, мелодрама, история, 1961) [DVDRip, Профессиональный (двухголосый)] " />

Аплоадер: Админ, дата: 29-09-2012, 07:44, торрент скачан: 359 раз

Понравилась раздача? Посмотрите эти:
  • Вечерние посетители / Les visiteurs du soir (Марсель Карне, фэнтези, драма, ...
  • Поездка в Америку / Coming to America (Джон Лэндис, драма, мелодрама, комед ...
  • Королевская шлюха / La putain du roi (Аксель Корти, драма, мелодрама, прикл ...
  • Ловушка для родителей / The Parent Trap (Дэвид Свифт, мелодрама, комедия, с ...
  • Однажды на матрасе / Once Upon a Mattress (Кэтлин Маршалл, мюзикл, мелодрам ...
  • Человек идёт за солнцем (Михаил Калик, драма, 1961) [DVDRip, Не требуется]
  • Принцесса де Монпансье / La princesse de Montpensier (Бертран Тавернье, дра ...
  • Убийство Генриха IV / Lassassinat dHenri IV: 14 mai 1610 (Жак Малатье, исто ...
  • Сладкая жизнь / La dolce vita (Федерико Феллини, драма, комедия, 1959) [DVD ...
  • Джентельменское соглашение / Gentlemans Agreement (Элиа Казан, драма, мелод ...
  • Мой американский дядюшка / Mon oncle dAmerique (Ален Рене, драма, мелодрама ...
  • С террасы / From the Terrace (Марк Робсон, драма, мелодрама, 1960) [DVDRip, ...
  • Пиковая Дама (Роман Тихомиров, мюзикл, драма, 1961) [DVDRip, Не требуется]
  • Эль Сид / El Cid (Энтони Манн, боевик, драма, мелодрама, военный, биография ...
  • Таинственный остров / Остров приключений / Mysterious Island (Сай Эндфилд, ...
  • Аустерлиц / Austerlitz (Абель Ганс, драма, история, 1960) [DVDRip, Професси ...
  • Лизелотта из Пфальца / Liselotte von der Pfalz (Курт Хофманн, мелодрама, ко ...
  • Белая свадьба / Noce blanche (Жан-Клод Бриссо, драма, мелодрама, 1989) [DVD ...
  • Неверные / Le infedeli (Марио Моничелли, Стено, драма, комедия, 1953) [DVDR ...
  • Бог знает, мистер Аллисон / Heaven Knows, Mr. Allison (Джон Хьюстон, боевик ...
  • Наследница / The Heiress (Уильям Уайлер, драма, мелодрама, 1949) [DVDRip, П ...
  • Под покровом небес / The Sheltering Sky (Бернардо Бертолуччи, драма, мелодр ...
  • Первый правитель / Gniazdo (Ян Рыбковский, драма, история, 1974) [DVDRip, П ...
  • Вдова Кудер / La veuve Couderc (Пьер Гранье-Дефер, боевик, драма, мелодрама ...
  • Убей! / Kiru (Кихачи Окамото, боевик, драма, комедия, 1968) [DVDRip, Профес ...
  • Информация
    Посетители, находящиеся в группе Гости, не могут оставлять комментарии к данной публикации.