вход на сайт

Имя пользователя :
Пароль :

Восстановление пароля Регистрация
Потерянный уик-энд / The Lost weekend (Билли Уайлдер , драма, фильм-нуар, 1945) [DVDRip, Профессиональный (двухголосый)]
Рейтинг:
(голосов: 1)



[img]{THEME}/images/logopost.png[/img]





Потерянный уик-энд / The Lost weekend

Год выпуска: 1945
Страна: США
Производство: Paramount Pictures
Жанр: драма, фильм-нуар

Режиссёр: Билли Уайлдер
В ролях: Рэй Милланд, Джейн Уаймен, Филлип Терри, Ховард Да Сильва, Дорис Даулинг, Фрэнк Фэйлен, Мэри Янг, Анита Шарп-Болстер, Лиллиан Фонтейн

Перевод: Профессиональный (двухголосый)
Субтитры: Отсутствуют

Описание:
Фильм снят по сценарию Чарльза Брэкетта и Билли Уайлдера, адаптировавших для кино роман Чарльза Р. Джексона. На суд кинозрителей представлен мрачный срез быта и нравов американского общества военного времени, в частности, трагедия опустившегося алкоголика.


Дополнительно:
MediaInfo ▼Text
Общее
Полное имя :J:Кинокопилка.РуРАЗДАЧАПотерянный уик-эндpoteryanniy_weekend_[tfile.ru].avi
Формат :AVI
Размер :701 MiB
Продолжительность :01:40:24.900
Общий поток :976 Kbps
Программа кодирования :VirtualDubMod 1.5.1.1a (build 1639/release)
Библиотека кодирования :VirtualDubMod build 1639/release

Видео
Идентификатор :0
Формат :MPEG-4 Visual
Параметр BVOP формата :1
Параметр Qpel формата :No
Параметр GMC формата :0
Параметр Matrix формата :Default (H.263)
Идентификатор кодека :DX50
Продолжительность :1h 40mn 24s 894ms
Битрейт :838 Kbps
Ширина :544 pixels
Высота :400 pixels
Соотношение сторон :1.360
Частота кадров :23.976 fps
Глубина цвета :8 bits
Подвыборка цветности :4:2:0
Цветовое пространство :YUV
Тип развертки :Progressive
Бит/(Пиксели*Кадры) :0.161
Размер потока :602 MiB (86%)
Библиотека кодирования :DivX503b830p

Аудио #1
Идентификатор :1
Формат :MPEG Audio
Идентификатор кодека :55
Продолжительность :01:40:24.900
Вид битрейта :Constant
Битрейт :128 Kbps
Канал(ы) :2 channels
Частота :44.1 KHz
Метод сжатия :Lossy
Размер потока :91.9 MiB (13%)Тех. данные:
Качество:DVDRip
Продолжительность:01:40:20 час

Формат: AVI
Видео кодек: DivX
Аудио кодек: MPA1L3
Видео: 544 x 400 (4:3), 23.976
fefd88ff28cf3252d2af1cb91a05eaab8a86672fПотерянный уик-энд / The Lost weekend (Билли Уайлдер , драма, фильм-нуар, 1945) [DVDRip, Профессиональный (двухголосый)] Потерянный уик-энд / The Lost weekend (Билли Уайлдер , драма, фильм-нуар, 1945) [DVDRip, Профессиональный (двухголосый)] " />

Аплоадер: Админ, дата: 29-09-2012, 07:36, торрент скачан: 359 раз

Понравилась раздача? Посмотрите эти:
  • Последний раз, когда я видел Париж / The Last Time I Saw Paris (Ричард Брук ...
  • Выбывший из игры / Odd Man Out (Кэрол Рид, фильм-нуар, триллер, драма, мело ...
  • Двойная страховка / Double Indemnity (Билли Уайлдер, фильм-нуар, триллер, д ...
  • Черная полоса / Dark Passage (Дэлмер Дэйвс, фильм-нуар, триллер, 1947) [DVD ...
  • Частная жизнь Шерлока Холмса / The Private Life of Sherlock Holmes (Билли У ...
  • Однажды на матрасе / Once Upon a Mattress (Кэтлин Маршалл, мюзикл, мелодрам ...
  • Свидетель обвинения / Witness for the Prosecution (Билли Уайлдер, драма, де ...
  • Обнаженная / Naked (Майк Ли, драма, комедия, 1993) [DVDRip, (2х)Профессиона ...
  • Потерянный уик-энд / The Lost Weekend (Билли Уайлдер, фильм-нуар, драма, 19 ...
  • Мальтийский сокол / The Maltese Falcon (Джон Хьюстон, фильм-нуар, криминал, ...
  • Азарт удачи / The Fortune Cookie (Билли Уайлдер, мелодрама, комедия, 1966) ...
  • Сладкая жизнь / La dolce vita (Федерико Феллини, драма, комедия, 1959) [DVD ...
  • Процесс Жанны Д Арк / Proces de Jeanne dArc (Робер Брессон, драма, военный, ...
  • Туз в рукаве / Ace in the Hole (Билли Уайлдер,фильм-нуар, драма, 1951) [DVD ...
  • Свидетель обвинения / Witness for the Prosecution (Билли Уайлдер, триллер, ...
  • Поцелуями сотри кровь с моих рук / Kiss the Blood Off My Hands (Норман Фост ...
  • Потерянный горизонт / Lost Horizon (Фрэнк Капра, фэнтези, драма, детектив, ...
  • Тристана / Tristana (Луис Бунюэль, Драма, 1970) [DVDRip, Профессиональный ( ...
  • Любовь после полудня / Love in the afternoon (Билли Уайлдер, комедия, драма ...
  • Леди из Шанхая / The Lady from Shanghai (Орсон Уэллс, фильм-нуар, триллер, ...
  • Аванти! / Avanti! (Билли Уайлдер, комедия, мелодрама, 1972) [DVDRip, Профес ...
  • Первый правитель / Gniazdo (Ян Рыбковский, драма, история, 1974) [DVDRip, П ...
  • Тем тяжеле бывает падение / The Harder They Fall (Марк Робсон, фильм-нуар, ...
  • Убей! / Kiru (Кихачи Окамото, боевик, драма, комедия, 1968) [DVDRip, Профес ...
  • Чужестранец / The Stranger (Орсон Уэллс, фильм-нуар, триллер, драма, кримин ...
  • Информация
    Посетители, находящиеся в группе Гости, не могут оставлять комментарии к данной публикации.