вход на сайт

Имя пользователя :
Пароль :

Восстановление пароля Регистрация
Пассажирка / Pasazerka (Анджей Мунк, Витольд Лесевич, драма, военный, история, 1963) [DVDRip, Профессиональный (полное дублирование)+оригинал]
Рейтинг:
(голосов: 1)



[img]{THEME}/images/logopost.png[/img]



Пассажирка / Pasazerka

Год выпуска: 1963
Страна: Польша
Производство: Zespol Filmowy "Kamera"
Жанр: драма, военный, история

Режиссёр: Анджей Мунк, Витольд Лесевич
В ролях: Александра Шлёнска, Анна Чепелевская, Януш Быльчинский, Кристина Дубеловна, Анна Голебиовска, Барбара Хоравянка, Анна Ярачовна, Мария Косцялковска, Анджей Красицкий, Ян Кречмар

Перевод: Профессиональный (полное дублирование)+оригинал
Субтитры: Отсутствуют

Описание:
На трансатлантическом корабле происходит случайная встреча бывшей узницы Освенцима польки Марты и эсэсовки Лизы. В центре внимания фильма — воспоминания Лизы о психологическом поединке в концлагере.


Дополнительно:
MediaInfo ▼Text
Общее
Полное имя :J:РАЗДАЧАПассажиркаpassazhirkapassazhirka.avi
Формат :AVI
Размер :750 MiB
Продолжительность :00:57:40.520
Общий поток :1 819 Kbps
Программа кодирования :VirtualDubMod 1.5.10.2 (build 2540/release)

Видео
Идентификатор :0
Формат :MPEG-4 Visual
Профиль формата :Advanced [email protected]
Параметр BVOP формата :No
Параметр Qpel формата :No
Параметр GMC формата :0
Параметр Matrix формата :Default (H.263)
Идентификатор кодека :XVID
Продолжительность :57mn 40s 520ms
Битрейт :1 589 Kbps
Ширина :640 pixels
Высота :368 pixels
Соотношение сторон :1.739
Частота кадров :25.000 fps
Глубина цвета :8 bits
Подвыборка цветности :4:2:0
Цветовое пространство :YUV
Тип развертки :Progressive
Бит/(Пиксели*Кадры) :0.270
Размер потока :655 MiB (87%)
Библиотека кодирования :XviD0039

Аудио #1
Идентификатор :1
Формат :MPEG Audio
Идентификатор кодека :55
Продолжительность :00:57:40.512
Битрейт :128 Kbps
Канал(ы) :2 channels
Частота :48.0 KHz
Метод сжатия :Lossy
Размер потока :52.8 MiB (7%)

Аудио #2
Идентификатор :2
Формат :MPEG Audio
Идентификатор кодека :55
Продолжительность :00:57:40.512
Ви
9190fbea7198baa4ebb59f742537e1527e7af9f1Пассажирка / Pasazerka (Анджей Мунк, Витольд Лесевич, драма, военный, история, 1963) [DVDRip, Профессиональный (полное дублирование)+оригинал] Пассажирка / Pasazerka (Анджей Мунк, Витольд Лесевич, драма, военный, история, 1963) [DVDRip, Профессиональный (полное дублирование)+оригинал] " />

Аплоадер: Админ, дата: 26-09-2012, 03:00, торрент скачан: 359 раз

Понравилась раздача? Посмотрите эти:
  • Официальная версия / La historia oficial (Луис Пуэнсо, драма, военный, исто ...
  • Знахарь / Znachor (Ежи Гоффман, Драма, мелодрама, 1981) [DVDRip, Профессион ...
  • Диверсанты / The Demolition Squad (Хайрудин Крвавац, военный, 1967) [DVDRip ...
  • До последней капли крови (2 части из 2) / Do krwi ostatiej (Ежи Гоффман, др ...
  • Оптимистическая трагедия (Самсон Самсонов, драма, военный, история, 1963) [ ...
  • Сержант Калень / Ogniomistrz Kalen (Эва Петельска, Чеслав Петельский, драма ...
  • Даки / Dacii (Серджиу Николаеску, драма, военный, история, 1966) [DVDRip, П ...
  • Партизанская эскадрилья / Partizanska eskadrila (Хайрудин Крвавац, драма, в ...
  • Чудесное спасение белых скакунов / Miracle of the White Stallions (Артур Хи ...
  • Попугай, говорящий на идиш (Эфраим Севела, драма, комедия, приключения, вое ...
  • Крестоносцы / Krzyzacy (Александр Форд, драма, мелодрама, приключения, воен ...
  • Бравый солдат Швейк / Dobry vojak Svejk (Карел Стеклы, комедия, военный, 19 ...
  • Ужицкая республика / Uzicka Republika (Жика Митрович, драма, военный, 1974) ...
  • Мальчишки с улицы Пал / A pal-utcai fiuk (Золтан Фабри, драма, 1968) [DVDRi ...
  • Дантон / Danton (Анджей Вайда, драма, биография, история, 1982) [HDRip, Про ...
  • Лиловая равнина / The Purple Plain (Роберт Пэрриш, боевик, драма, приключен ...
  • Огни рампы / Limelight (Чарльз Чаплин, драма, мелодрама, комедия, музыка, 1 ...
  • На серебряной планете / Na srebrnym globie (Анджей Жулавски, фантастика, фэ ...
  • Красавица Мемфиса / Memphis Belle (Майкл Кейтон-Джонс, боевик, драма, военн ...
  • Бог знает, мистер Аллисон / Heaven Knows, Mr. Allison (Джон Хьюстон, боевик ...
  • Где генерал? / Gdzie jest general… (Тадеуш Хмелевский, комедия, военный, 19 ...
  • Девичий заговор / Rzeczpospolita babska (Хероним Пшибыл, комедия, 1969) [DV ...
  • Охота на мух / Polowanie na muchy (Анджей Вайда, комедия, 1969) [DVDRip, Пр ...
  • Человек из мрамора / Czlowiek z marmuru (2 части из 2-х) (Анджей Вайда, дра ...
  • Адмирал Нахимов (Всеволод Пудовкин, драма, военный, биография, история, 194 ...
  • Информация
    Посетители, находящиеся в группе Гости, не могут оставлять комментарии к данной публикации.