вход на сайт

Имя пользователя :
Пароль :

Восстановление пароля Регистрация
Пират-самурай / Dai tozoku (Сенкичи Танигучи, фэнтези, боевик, приключения, 1963) [DVDRip, Авторский одноголосый (Сергей Кузнецов)]
Рейтинг:
(голосов: 1)



[img]{THEME}/images/logopost.png[/img]



Пират-самурай / Dai tozoku

Год выпуска: 1963
Страна: Япония
Производство: Toho Company
Жанр: фэнтези, боевик, приключения

Режиссёр: Сенкичи Танигучи
В ролях: Тосиро Мифунэ, Тадао Накамару, Миэ Хама, Куми Мидзуно, Арисима Итиро, Эйсэй Амамото, Акико Вакабаяси, Макото Сато, Дзюн Тадзаки, Сэнкити Танигути

Перевод: Авторский одноголосый (Сергей Кузнецов)
Субтитры: Отсутствуют

Описание:
Сукеземон — пират, потерпевший кораблекрушение в странном уголке мира. Вместе со своим спутником, волшебником по имени Сеннин, он вовлекается в заговор злобного премьер-министра с целью свержения короля Ракши.


Дополнительно:
MediaInfo ▼Text
Общее
Полное имя :L:РАЗДАЧАПират-самурайPirat.samuray.1963.XviD.DVDRip.avi
Формат :AVI
Размер :1.37 GiB
Продолжительность :01:32:46.016
Общий поток :2 113 Kbps
Программа кодирования :Lavf52.33.0

Видео
Идентификатор :0
Формат :MPEG-4 Visual
Профиль формата :[email protected]
Параметр BVOP формата :No
Параметр Qpel формата :No
Параметр GMC формата :0
Параметр Matrix формата :Default (H.263)
Идентификатор кодека :XVID
Продолжительность :1h 32mn 45s 977ms
Битрейт :1 910 Kbps
Ширина :720 pixels
Высота :304 pixels
Соотношение сторон :2.368
Частота кадров :23.976 fps
Глубина цвета :8 bits
Подвыборка цветности :4:2:0
Цветовое пространство :YUV
Тип развертки :Progressive
Бит/(Пиксели*Кадры) :0.364
Размер потока :1.24 GiB (90%)
Библиотека кодирования :XviD0050

Аудио #1
Идентификатор :1
Формат :AC-3
Формат/Информация :Audio Coding 3
Идентификатор кодека :2000
Продолжительность :01:32:46.016
Вид битрейта :Constant
Битрейт :192 Kbps
Канал(ы) :2 channels
Расположение каналов :Front: L R
Частота :48.0 KHz
Битовая глубина :16 bits
Метод сжатия :Lossy
Размер потока :127 MiB (9%)Тех. данные:
Качество:DVDRip
Продолжительность:01:32:46 час
&nb
c36ef2ee7aca3452f80bfb59900ee1fe9b3deccdПират-самурай / Dai tozoku (Сенкичи Танигучи, фэнтези, боевик, приключения, 1963) [DVDRip, Авторский одноголосый (Сергей Кузнецов)] Пират-самурай / Dai tozoku (Сенкичи Танигучи, фэнтези, боевик, приключения, 1963) [DVDRip, Авторский одноголосый (Сергей Кузнецов)] " />

Аплоадер: Админ, дата: 24-09-2012, 19:47, торрент скачан: 359 раз

Понравилась раздача? Посмотрите эти:
  • Карлик Нос / Zwerg Nase (Карл-Хайнц Бальс, фэнтези, 1978) [DVDRip, Любитель ...
  • Горящие холмы / The Burning Hills (Стюарт Хейслер, мелодрама, вестерн, 1956 ...
  • Оптимистическая трагедия (Самсон Самсонов, драма, военный, история, 1963) [ ...
  • Огненный ястреб / Firehawk (Сирио Сантьяго, боевик, приключения, военный, 1 ...
  • Командир / Der Commander (Антонио Маргерити, боевик, военный, 1988) [DVDRip ...
  • Синбад и Глаз Тигра / Sinbad and the Eye of the Tiger (Сэм Уонамейкер , фэн ...
  • Бусидо Бохати: путь забывших о Восьми / Bohachi Bushido: Code of the Forgot ...
  • Убийца сёгуна / Shogun Assassin (Роберт Хьюстон, Кэндзи Мисуми, боевик, дра ...
  • Леди карате / Сестра Уличного Бойца / Onna hissatsu ken (Кадзухико Ямагути, ...
  • Небывальщина (Сергей Овчаров, комедия, 1983) [DVDRip, Не требуется]
  • Сотрудник ЧК (Борис Волчек, боевик, история, 1963) [DVDRip, Не требуется]
  • Пропало лето (Ролан Быков, Никита Орлов, комедия, семейный, 1963) [DVDRip, ...
  • Пуск торпеды / Torpedo Run (Джозеф Пивни, драма, военный, 1958) [DVDRip, Ав ...
  • Хозяин и слуга (Дмитрий Кесаянц, короткометражка, комедия, 1963) [DVDRip, Н ...
  • Волки / Shussho Iwai (Хидео Гося, драма, криминал, 1971) [DVDRip, Авторский ...
  • Зелиг / Zelig (Вуди Аллен, фэнтези, комедия, 1983) [DVDRip, Авторский (одно ...
  • Морские обезьяны / Umizaru (Эйитиро Хасуми, боевик, драма, 2004) [BDRip, Ав ...
  • На серебряной планете / Na srebrnym globie (Анджей Жулавски, фантастика, фэ ...
  • Пират Черная борода / Blackbeard, the Pirate (Рауль Уолш, приключения, 1952 ...
  • Розенкранц и Гильденштерн мертвы / Rosencrantz & Guildenstern Are Dead (Том ...
  • Суперполицейские из Майами / Miami Supercops (Бруно Корбуччи, боевик, комед ...
  • Повелитель зверей / The Beastmaster (Дон Коскарелли, фэнтези, боевик, прикл ...
  • Убей! / Kiru (Кихачи Окамото, боевик, драма, комедия, 1968) [DVDRip, Профес ...
  • Хад / Hud (Мартин Ритт, драма, 1963) [DVDRip, Профессиональный (многоголосы ...
  • Каин XVIII (Надежда Кошеверова, Михаил Шапиро, фэнтези, мелодрама, приключе ...
  • Информация
    Посетители, находящиеся в группе Гости, не могут оставлять комментарии к данной публикации.