вход на сайт

Имя пользователя :
Пароль :

Восстановление пароля Регистрация
Наследница / The Heiress (Уильям Уайлер, драма, мелодрама, 1949) [DVDRip, Профессиональный (двухголосый)]
Рейтинг:
(голосов: 1)



[img]{THEME}/images/logopost.png[/img]





Наследница / The Heiress

Год выпуска: 1949
Страна: США
Производство: Paramount Pictures
Жанр: драма, мелодрама

Режиссёр: Уильям Уайлер
В ролях: Оливия де Хэвиллэнд, Монтгомери Клифт, Ральф Ричардсон, Мириам Хопкинс, Ванесса Браун, Бетти Линли, Рэй Коллинз, Мона Фриман, Селена Ройл, Пол Лииз

Перевод: Профессиональный (двухголосый)
Субтитры: Отсутствуют

Описание:
Действие фильма происходит в 1840-ых годах в Нью-Йорке. Кэтрин живет со своим отцом, доктором Слопером. Ее мать умерла за несколько лет до этого, и доктор Слопер постоянно сравнивает свою дочь с ней, не в пользу первой. Кэтрин знакомится с Морисом Тоунсендом, красивым, но ветренным молодым человеком, и через некоторое время он делает ей предложение. Доктор Слопер уверен, что он хочет жениться на ней из-за наследства и противится их браку.


Дополнительно:
MediaInfo ▼Text
Общее
Полное имя :M:ФильмыРАЗДАЧАНаследница he_heiress.avi
Формат :AVI
Размер :1.37 GiB
Продолжительность :01:55:25.711
Общий поток :1 695 Kbps
Программа кодирования :VirtualDubModRus 1.5.10.2 (build 2542/release)
Библиотека кодирования :VirtualDubMod build 2542/release

Видео
Идентификатор :0
Формат :MPEG-4 Visual
Параметр BVOP формата :1
Параметр Qpel формата :No
Параметр GMC формата :0
Параметр Matrix формата :Default (H.263)
Идентификатор кодека :DX50
Продолжительность :1h 55mn 25s 711ms
Битрейт :1 558 Kbps
Ширина :640 pixels
Высота :480 pixels
Соотношение сторон :1.333
Частота кадров :23.976 fps
Глубина цвета :8 bits
Подвыборка цветности :4:2:0
Цветовое пространство :YUV
Тип развертки :Progressive
Бит/(Пиксели*Кадры) :0.212
Размер потока :1.26 GiB (92%)
Библиотека кодирования :DivX503b2816p

Аудио #1
Идентификатор :1
Формат :MPEG Audio
Идентификатор кодека :55
Продолжительность :01:55:24.048
Вид битрейта :Constant
Битрейт :128 Kbps
Канал(ы) :2 channels
Частота :48.0 KHz
Метод сжатия :Lossy
Размер потока :106 MiB (8%)
Язык &nb
69ffdb5d26dbb78da53dd62619de1462f835371cНаследница / The Heiress (Уильям Уайлер, драма, мелодрама, 1949) [DVDRip, Профессиональный (двухголосый)] Наследница / The Heiress (Уильям Уайлер, драма, мелодрама, 1949) [DVDRip, Профессиональный (двухголосый)] " />

Аплоадер: Админ, дата: 23-09-2012, 18:32, торрент скачан: 359 раз

Понравилась раздача? Посмотрите эти:
  • Лучшие годы нашей жизни / The Best Years of Our Lives (Уильям Уайлер, драма ...
  • Коллекционер / The Collector (Уильям Уайлер, триллер, драма, 1958) [DVDRip, ...
  • Поездка в Америку / Coming to America (Джон Лэндис, драма, мелодрама, комед ...
  • На Золотом пруду / On Golden Pond (Марк Райделл, Драма, мелодрама, 1981) [D ...
  • Наследница по прямой (Сергей Соловьев, мелодрама, 1982) [DVDRip, Не требует ...
  • Однажды на матрасе / Once Upon a Mattress (Кэтлин Маршалл, мюзикл, мелодрам ...
  • Дама с собачкой (Иосиф Хейфиц, драма, мелодрама, 1959) [DVDRip, Не требуетс ...
  • Обнаженная / Naked (Майк Ли, драма, комедия, 1993) [DVDRip, (2х)Профессиона ...
  • Спасите тигра / Save the Tiger (Джон Г. Эвилдсен, драма, 1973) [DVDRip, Про ...
  • Дружеское увещевание / Friendly Persuasion (Уильям Уайлер, драма, вестерн, ...
  • Как украсть миллион / How to steal a million (Уильям Уайлер, комедия, крими ...
  • Смешная девчонка / Funny Girl (Уильям Уайлер , мюзикл, драма, мелодрама, ко ...
  • 45 калибр / Ms .45 (Гари Леннон, триллер, драма, криминал, 2006) [DVDRip, П ...
  • Под знаком Козерога / Under Capricorn (Альфред Хичкок, драма, мелодрама, 19 ...
  • Дневники мотылька / The Moth Diaries (Мэри Хэррон, ужасы, драма, 2011) [DVD ...
  • Неверные / Le infedeli (Марио Моничелли, Стено, драма, комедия, 1953) [DVDR ...
  • Принцесса Клевская / La princesse de Cleves (Жан Деланнуа, драма, мелодрама ...
  • Пески Иво Джимы / Sands of Iwo Jima (Аллан Дуон, боевик, драма, мелодрама, ...
  • Тупик / Dead End (Уильям Уайлер, драма, криминал, 1937) [DVDRip, Профессион ...
  • Часы отчаяния / The Desperate Hours (Уильям Уайлер, фильм-нуар, триллер, др ...
  • Информация
    Посетители, находящиеся в группе Гости, не могут оставлять комментарии к данной публикации.