вход на сайт

Имя пользователя :
Пароль :

Восстановление пароля Регистрация
Мой дядюшка / Mon oncle (Жак Тати, комедия, 1958) [DVDRip, Профессиональный (многоголосый, закадровый)+оригинал]
Рейтинг:
(голосов: 1)



[img]{THEME}/images/logopost.png[/img]





Мой дядюшка / Mon oncle

Год выпуска: 1958
Страна: Франция, Италия
Производство: Alter Films, Gaumont Distribution, Gray-Film, Specta Films
Жанр: комедия

Режиссёр: Жак Тати
В ролях: Жак Тати, Жан-Пьер Золя, Адриенн Сервантье, Люсьен Фрежис, Бетти Шнайдер, Жан-Франсуа Марсаль, Доминик Мари, Ивонн Арно, Аделаида Даниели, Ален Бекур

Перевод: Профессиональный (многоголосый, закадровый)+оригинал
Субтитры: Отсутствуют

Описание:
Юло приезжает погостить к двоюродному брату Арпелю, который работает управляющим на большой фабрике и полностью механизировал свой дом.


Дополнительно:
MediaInfo ▼Text
Общее
Полное имя :K:РАЗДАЧАМой дядюшкаmoj_djadjushkamoj_djadjushka.avi
Формат :AVI
Размер :2.00 GiB
Продолжительность :01:50:55.000
Общий поток :2 576 Kbps
Программа кодирования :VirtualDubMod 1.5.10.2 (build 2542/release)

Видео
Идентификатор :0
Формат :MPEG-4 Visual
Профиль формата :Advanced [email protected]
Параметр BVOP формата :1
Параметр Qpel формата :No
Параметр GMC формата :0
Параметр Matrix формата :Custom
Идентификатор кодека :XVID
Продолжительность :1h 50mn 55s 0ms
Битрейт :2 180 Kbps
Ширина :720 pixels
Высота :544 pixels
Соотношение сторон :1.324
Частота кадров :25.000 fps
Глубина цвета :8 bits
Подвыборка цветности :4:2:0
Цветовое пространство :YUV
Тип развертки :Progressive
Бит/(Пиксели*Кадры) :0.223
Размер потока :1.69 GiB (85%)
Библиотека кодирования :XviD0046

Аудио #1
Идентификатор :1
Формат :AC-3
Формат/Информация :Audio Coding 3
Идентификатор кодека :2000
Продолжительность :01:50:54.912
Вид битрейта :Constant
Битрейт :192 Kbps
Канал(ы) :2 channels
Расположение каналов :Front: L R
Частота :48.0 KHz
Битовая глубина :16 bits
Метод сжатия :Lossy
Размер потока :152 MiB (7%)

Аудио #2
Идентификатор :
3a6cc33106b5bfa65a304cc4a1b74ceb8feb46abМой дядюшка / Mon oncle (Жак Тати, комедия, 1958) [DVDRip, Профессиональный (многоголосый, закадровый)+оригинал] Мой дядюшка / Mon oncle (Жак Тати, комедия, 1958) [DVDRip, Профессиональный (многоголосый, закадровый)+оригинал] " />

Аплоадер: Админ, дата: 23-09-2012, 17:28, торрент скачан: 359 раз

Понравилась раздача? Посмотрите эти:
  • Воздыхатель / Le soupirant (Пьер Этекс, комедия, 1962) [DVDRip, Профессиона ...
  • Вечерние посетители / Les visiteurs du soir (Марсель Карне, фэнтези, драма, ...
  • Сезар и Розали / Cesar et Rosalie (Клод Соте, драма, комедия, 1972) [BDRip, ...
  • Коллекционер / The Collector (Уильям Уайлер, триллер, драма, 1958) [DVDRip, ...
  • Не пойман - не вор / Ni vu, ni connu (Ив Робер, комедия, 1958) [DVDRip, Про ...
  • Гуляка / Le cavaleur (Филипп де Брока, комедия, 1979) [DVDRip, Профессиона ...
  • Молчание - золото / Le silence est dor (Рене Клер, мелодрама, комедия, 1947 ...
  • Садовник из Аржантей / Le jardinier dArgenteuil (Жан-Поль Ле Шануа, комедия ...
  • Мой американский дядюшка / Mon oncle dAmerique (Ален Рене, драма, мелодрама ...
  • Удар головой / Coup de tete (Жан-Жак Анно, драма, комедия, спорт, 1978) [DV ...
  • Кошка на раскаленной крыше / Cat on a Hot Tin Roof (Ричард Брукс, драма, 19 ...
  • Любовники / Les amants (Луи Малль, драма, 1958) [DVDRip, Профессиональный ( ...
  • Жить, чтобы жить / Vivre Pour Vivre (Клод Лелуш, драма, 1967) [DVDRip, Проф ...
  • Большой начальник (Вождь краснокожих) / Le grand chef (Анри Вернёй, комедия ...
  • Зелиг / Zelig (Вуди Аллен, фэнтези, комедия, 1983) [DVDRip, Авторский (одно ...
  • Мы поедем в Дювиль / Nous irons a Deauville (Френсис Риго, комедия, 1962) [ ...
  • Будь красивой и молчи / Sois belle et tais-toi (Марк Аллегре, комедия, 1958 ...
  • К северу от Аляски / North to Alaska (Генри Хэтэуэй, вестерн, комедия, 1960 ...
  • Млечный путь / La voie lactee (Луис Бунюэль, драма, комедия, 1969) [DVDRip, ...
  • Повышение / The Promotion (Стив Конрад, Комедия, 2008) [DVDRip, Профессиона ...
  • Уик-энд / Week End (Жан-Люк Годар, драма, комедия, 1967) [DVDRip, Профессио ...
  • Властелин джунглей / Ghatothkach (Сингитам Шриниваса Рао, мультфильм, 2008) ...
  • Улица Прери / Rue des Prairies (Дени де Ла Пательер, драма, 1959) [DVDRip, ...
  • Близнец / Le jumeau (Ив Робер, Комедия, 1984) [DVDRip, Профессиональный (мн ...
  • Шофер поневоле (Надежда Кошеверова, комедия, 1958) [DVDRip, Не требуется]
  • Информация
    Посетители, находящиеся в группе Гости, не могут оставлять комментарии к данной публикации.