вход на сайт

Имя пользователя :
Пароль :

Восстановление пароля Регистрация
Конвейер / Blue Collar (Пол Шредер, драма, криминал, 1977) [DVDRip, Профессиональный (многоголосый, закадровый)]
Рейтинг:
(голосов: 1)



[img]{THEME}/images/logopost.png[/img]



Конвейер / Blue Collar

Год выпуска: 1977
Страна: Франция, Италия
Производство: TAT Communications Company
Жанр: драма, криминал

Режиссёр: Пол Шредер
В ролях: Ричард Прайор, Харви Кейтель, Яфет Котто, Эд Бегли мл., Гарри Беллэвер, Клифф Де Янг.Люси Сароян

Перевод: Профессиональный (многоголосый, закадровый)
Субтитры: Отсутствуют

Описание:
Жизнь у сборочного конвейера тосклива. Изо дня в день клеить ветровое стекло… Один автомобиль в минуту. 55 в час. 220000 в год. Зарплата неприлично маленькая. Профсоюз продажный. Жизнь — бесконечный перечень неоплаченных счетов. И вот трое рабочих задумывают провернуть дельце, чтобы вырваться на свободу из этого мрака.


Дополнительно:
Рейтинг MPAA: ▼
Рейтинг R - Лицам до 17 лет обязательно присутствие взрослого



MediaInfo ▼Text
Общее
Полное имя :M:ФильмыРАЗДАЧАКонвейерlue_сollar.avi
Формат :AVI
Размер :743 MiB
Продолжительность :01:53:29.976
Общий поток :915 Kbps
Программа кодирования :VirtualDubMod 1.5.10.2 (build 2540/release)
Библиотека кодирования :VirtualDubMod build 2540/release

Видео
Идентификатор :0
Формат :MPEG-4 Visual
Профиль формата :Advanced [email protected]
Параметр BVOP формата :1
Параметр Qpel формата :No
Параметр GMC формата :0
Параметр Matrix формата :Custom
Идентификатор кодека :XVID
Продолжительность :1h 53mn 29s 970ms
Битрейт :794 Kbps
Ширина :608 pixels
Высота :336 pixels
Соотношение сторон :1.810
Частота кадров :23.976 fps
Глубина цвета :8 bits
Подвыборка цветности :4:2:0
Цветовое пространство :YUV
Тип развертки :Progressive
Бит/(Пиксели*Кадры) :0.162
Размер потока :644 MiB (87%)
Библиотека кодирования :XviD0050

Аудио #1
Идентификатор :1
Формат :MPEG Audio
Идентификатор кодека :55
Продолжительность :01:53:29.976
Вид битрейта :Constant
Битрейт :112 Kbps
Канал(ы) :2 channels
Частота :48.0 KHz
Метод сжатия :Lossy
Размер потока :90.9 MiB (12%)Тех. данные:
69ea3a7f7cb0050a255ba3a6a9101342eecdab32Конвейер / Blue Collar (Пол Шредер, драма, криминал, 1977) [DVDRip, Профессиональный (многоголосый, закадровый)] Конвейер / Blue Collar (Пол Шредер, драма, криминал, 1977) [DVDRip, Профессиональный (многоголосый, закадровый)] " />

Аплоадер: Админ, дата: 21-09-2012, 20:12, торрент скачан: 359 раз

Понравилась раздача? Посмотрите эти:
  • Таксист / Taxi Driver (Мартин Скорсезе, триллер, драма, криминал, 1976) [BD ...
  • Репли-Кейт / Repli-Kate (Фрэнк Лонго, фантастика, комедия, 2002) [DVDRip, П ...
  • Час свиньи / The Hour of the Pig (Лесли Мегахи, Драма, история, криминал, д ...
  • Странный груз / Strange Cargo (Фрэнк Борзеги, драма, мелодрама, 1940) [DVDR ...
  • Цена славы / Price of Glory (Карлос Авила, Драма, спорт, 2000) [DVDRip, Про ...
  • Подмена / Switch (Блейк Эдвардс, фэнтези, комедия, криминал, 1991) [DVDRip, ...
  • Сердце и души / Heart and Souls (Рон Андервуд, фэнтези, драма, мелодрама, к ...
  • Воины джунглей / Bangrajan (Танит Дзитнукул, боевик, драма, военный, истори ...
  • Воины джунглей / Bangrajan (Танит Дзитнукул, боевик, драма, военный, истори ...
  • Информаторы / The Informers (Грегор Джордан, триллер, драма, криминал, 2008 ...
  • Вальсирующие / Les valseuses (Бертран Блие, драма, комедия, криминал, 1966) ...
  • Злые улицы / Mean Streets (Мартин Скорсезе, драма, криминал, 1973) [HDRip, ...
  • Дуэлянты / The Duellists (Ридли Скотт, боевик, драма, приключения, военный, ...
  • Свидетель обвинения / Witness for the Prosecution (Билли Уайлдер, триллер, ...
  • Афера / The Sting (Джордж Рой Хилл, комедия, криминал, 1973) [DVDRip, Профе ...
  • Жить, чтобы жить / Vivre Pour Vivre (Клод Лелуш, драма, 1967) [DVDRip, Проф ...
  • Осенняя соната / Hostsonaten (Ингмар Бергман, драма, музыка, 1978) [DVDRip, ...
  • Квадрофения / Quadrophenia (Фрэнк Роддэм, драма, криминал, музыка, 1979) [H ...
  • Оскорбление / The Offence (Сидни Люмет, триллер, драма, криминал, 1972) [DV ...
  • Свяжи меня / Atame! (Педро Альмодовар, драма, мелодрама, комедия, криминал, ...
  • Долгая Страстная пятница / The Long Good Friday (Джон Маккензи, триллер, др ...
  • Повышение / The Promotion (Стив Конрад, Комедия, 2008) [DVDRip, Профессиона ...
  • Этот смутный объект желания / Cet obscur objet du desir (Луис Бунюэль, драм ...
  • Вне закона / Down by Law (Джим Джармуш, драма, комедия, криминал, 1986) [DV ...
  • Авария / Breakdown (Джонатан Мостоу, боевик, триллер, драма, криминал, дете ...
  • Информация
    Посетители, находящиеся в группе Гости, не могут оставлять комментарии к данной публикации.