вход на сайт

Имя пользователя :
Пароль :

Восстановление пароля Регистрация
Круг чистой воды / Ring of Bright Water (Джек Коуффер, драма, комедия, 1969) [DVDRip, Любительский (одноголосый)]
Рейтинг:
(голосов: 1)



[img]{THEME}/images/logopost.png[/img]



Круг чистой воды / Ring of Bright Water

Год выпуска: 1969
Страна: Великобритания
Производство: Brightwater Film Production, Palomar Pictures International, The Rank Organisation Film Productions Ltd.
Жанр: драма, комедия

Режиссёр: Джек Коуффер
В ролях: Билл Трэверс, Вирджиния МакКинна, Питер Джеффри, Джеймсон Кларк, Хелена Глоаг, В.Д. ДЖосс

Перевод: Любительский (одноголосый)
Субтитры: Отсутствуют

Описание:
Кто сказал, что лучшим другом человека является собака? Для одинокого лондонского клерка Грэхема лучшим другом стала купленная в зоомагазине выдра, ради которой он даже бросил неплохую работу и уехал в холодную Шотландию.


Дополнительно:
Рейтинг MPAA: ▼
Рейтинг G - Нет возрастных ограничений



MediaInfo ▼Text
Общее
Полное имя :K:РАЗДАЧАКруг чистой водыing_of_bright_water.avi
Формат :AVI
Размер :1.20 GiB
Продолжительность :01:46:48.277
Общий поток :1 604 Kbps
Программа кодирования :VirtualDubModRus 1.5.10.2 (build 2542/release)
Библиотека кодирования :VirtualDubMod build 2542/release

Видео
Идентификатор :0
Формат :MPEG-4 Visual
Параметр BVOP формата :No
Параметр Qpel формата :No
Параметр GMC формата :0
Параметр Matrix формата :Default (H.263)
Идентификатор кодека :DX50
Продолжительность :1h 46mn 48s 277ms
Битрейт :1 499 Kbps
Ширина :640 pixels
Высота :400 pixels
Соотношение сторон :1.745
Частота кадров :23.976 fps
Глубина цвета :8 bits
Подвыборка цветности :4:2:0
Цветовое пространство :YUV
Тип развертки :Interlaced
Бит/(Пиксели*Кадры) :0.244
Размер потока :1.12 GiB (93%)
Библиотека кодирования :DivX503b2559

Аудио #1
Идентификатор :1
Формат :MPEG Audio
Идентификатор кодека :55
Продолжительность :01:46:48.277
Вид битрейта :Constant
Битрейт :96.0 Kbps
Канал(ы) :2 channels
Частота :44.1 KHz
Метод сжатия :Lossy
Размер потока :73.3 MiB (6%)Тех. данные:
Качество:DVDRip
Продолжительность:01:46:47 час

Формат: AVI
Видео кодек: DivX
Аудио коде
9ae719bf3100ef0ff759a9303fdf468cf49f2213Круг чистой воды / Ring of Bright Water (Джек Коуффер, драма, комедия, 1969) [DVDRip, Любительский (одноголосый)] Круг чистой воды / Ring of Bright Water (Джек Коуффер, драма, комедия, 1969) [DVDRip, Любительский (одноголосый)] " />

Аплоадер: Админ, дата: 21-09-2012, 20:04, торрент скачан: 359 раз

Понравилась раздача? Посмотрите эти:
  • Пленники болот / Lure of the Wilderness (Жан Негулеско, драма, мелодрама, п ...
  • Тайная полиция Италии / Italian Secret Service (Луиджи Коменчини, комедия, ...
  • Маркиз дель Грилло / Il Marchese del Grillo (Марио Моничелли, комедия, 1981 ...
  • С тобой меня радует мир / S tebou me bavi svet (Мария Поледнякова, комедия, ...
  • Одинокая женщина / Kobieta samotna (Агнешка Холланд, драма, 1981) [DVDRip, ...
  • Нейтральные воды (Владимир Беренштейн, драма, 1968) [DVDRip, Не требуется]
  • Мы и наши горы (Генрих Малян, драма, комедия, 1969) [DVDRip, Профессиональн ...
  • Партизанская эскадрилья / Partizanska eskadrila (Хайрудин Крвавац, драма, в ...
  • След кота (Уильям А. Уэллмен, драма, вестерн, 1954) [DVDRip, Любительский ( ...
  • Путешествие на Луну / Le Voyage dans la Lune (Жорж Мельес, короткометражка, ...
  • Земля Фараонов / Land of the Pharaohs (Ховард Хоукс, драма, история, 1955) ...
  • Нет мира под оливами / Non ce pace tra gli ulivi (Джузеппе де Сантис, драма ...
  • Отвратительные, грязные, злые / Brutti, sporchi e cattivi (Этторе Скола, др ...
  • Розенкранц и Гильденштерн мертвы / Rosencrantz & Guildenstern Are Dead (Том ...
  • Урок любви / En lektion i karlek (Ингмар Бергман, драма, комедия, 1954) [DV ...
  • Ростовщик / The Pawnbroker (Сидни Люмет, драма, 1964) [DVDRip, Любительский ...
  • Римлянка / La romana (Луиджи Дзампа, драма, 1954) [DVDRip, Любительский (од ...
  • Как раздражать людей / How to Irritate People (Йен Фордайсе, комедия, 1969) ...
  • Человек диких прерий / Man in the Wilderness (Ричард С. Сарафьян, приключен ...
  • Медведи и я / The Bears and I (Бернард МакЭвети, драма, семейный, 1974) [DV ...
  • Информация
    Посетители, находящиеся в группе Гости, не могут оставлять комментарии к данной публикации.