вход на сайт

Имя пользователя :
Пароль :

Восстановление пароля Регистрация
Колокол, книга и свеча / Bell Book and Candle (Ричард Квин, фэнтези, комедия, мелодрама, 1958) [DVDRip, Профессиональный (многоголосый, закадровый)]
Рейтинг:
(голосов: 1)



[img]{THEME}/images/logopost.png[/img]





Колокол, книга и свеча / Bell Book and Candle

Год выпуска: 1958
Страна: США
Производство: Julian Blaustein Productions Ltd.
Жанр: фэнтези, комедия, мелодрама

Режиссёр: Ричард Квин
В ролях: Джеймс Стюарт, Ким Новак, Джек Леммон, Эрни Ковач, Гермиона Гингольд, Эльза Ланчестер, Дженис Рул, Филипп Клэй, Бек Нельсон, Ховард МакНир

Перевод: Профессиональный (многоголосый, закадровый)
Субтитры: Отсутствуют

Описание:
Джиллиан Хоррой — обычная современная ведьма. Красивая, обворожительная и… одинокая. Единственный спутник жизни — любимый сиамский котик. Но однажды порог здания, в котором живёт чародейка, переступает симпатичный сотрудник одного печатного издания, Шеп Хендерсон.


Дополнительно:
Рейтинг MPAA: ▼
Рейтинг PG - Рекомендуется присутствие родителей



MediaInfo ▼Text
Общее
Полное имя :K:РАЗДАЧАКолокол, книга и свечаBell.AVI
Формат :AVI
Размер :1.36 GiB
Продолжительность :01:42:27.058
Общий поток :1 905 Kbps

Видео
Идентификатор :0
Формат :MPEG-4 Visual
Параметр BVOP формата :Yes
Параметр Qpel формата :No
Параметр GMC формата :0
Параметр Matrix формата :Default (MPEG)
Идентификатор кодека :XVID
Продолжительность :1h 42mn 27s 58ms
Битрейт :1 669 Kbps
Ширина :640 pixels
Высота :480 pixels
Соотношение сторон :1.333
Частота кадров :23.976 fps
Глубина цвета :8 bits
Цветовое пространство :YUV
Тип развертки :Progressive
Бит/(Пиксели*Кадры) :0.227
Размер потока :1.19 GiB (88%)

Аудио #1
Идентификатор :1
Формат :MPEG Audio
Идентификатор кодека :55
Продолжительность :01:42:26.342
Вид битрейта :Constant
Битрейт :224 Kbps
Канал(ы) :2 channels
Частота :48.0 KHz
Метод сжатия :Lossy
Размер потока :164 MiB (12%)Тех. данные:
Качество:DVDRip
Продолжительность:01:42:28 час

Формат: AVI
Видео кодек:
Аудио кодек: MPA1L3
Видео: 640 x 480 (4:3), 23.976 fps, 1 669 Kbps, 0.227 bit/pixel
Аудио : 48.0 KHz, , 2 channels (), 224 Kbps



5268e6be2d9ce92b79363565d8b71bf666f48a61Колокол, книга и свеча / Bell Book and Candle (Ричард Квин, фэнтези, комедия, мелодрама, 1958) [DVDRip, Профессиональный (многоголосый, закадровый)] Колокол, книга и свеча / Bell Book and Candle (Ричард Квин, фэнтези, комедия, мелодрама, 1958) [DVDRip, Профессиональный (многоголосый, закадровый)] " />

Аплоадер: Админ, дата: 21-09-2012, 19:53, торрент скачан: 359 раз

Понравилась раздача? Посмотрите эти:
  • Привидения по-итальянски / Questi fantasmi (Ренато Кастеллани, фэнтези, ком ...
  • Вечерние посетители / Les visiteurs du soir (Марсель Карне, фэнтези, драма, ...
  • Однажды на матрасе / Once Upon a Mattress (Кэтлин Маршалл, мюзикл, мелодрам ...
  • Магазинчик за углом / The Shop Around the Corner (Эрнст Любич, драма, мелод ...
  • Не пойман - не вор / Ni vu, ni connu (Ив Робер, комедия, 1958) [DVDRip, Про ...
  • Наперегонки с Луной / Racing with the Moon (Ричард Бенджамин, Драма, мелодр ...
  • Подмена / Switch (Блейк Эдвардс, фэнтези, комедия, криминал, 1991) [DVDRip, ...
  • Состояние сердца / Heart Condition (Джеймс Д. Пэрриотт, фэнтези, боевик, др ...
  • Сердце и души / Heart and Souls (Рон Андервуд, фэнтези, драма, мелодрама, к ...
  • Мерлин и книга чудовищ / Merlin and the Book of Beasts (Уоррен П. Сонода, Ф ...
  • Кошка на раскаленной крыше / Cat on a Hot Tin Roof (Ричард Брукс, драма, 19 ...
  • Укрощение строптивой / The Taming of the Shrew (Франко Дзеффирелли, комедия ...
  • Зелиг / Zelig (Вуди Аллен, фэнтези, комедия, 1983) [DVDRip, Авторский (одно ...
  • Консьерж / For Love or Money (Барри Зонненфельд, Мелодрама, комедия, 1993) ...
  • Микки и Мод / Micki + Maude (Блейк Эдвардс, Мелодрама, комедия, 1983) [DVDR ...
  • Будь красивой и молчи / Sois belle et tais-toi (Марк Аллегре, комедия, 1958 ...
  • Мой дядюшка / Mon oncle (Жак Тати, комедия, 1958) [DVDRip, Профессиональный ...
  • Сделано в Раю / Made in Heaven (Алан Рудольф, фэнтези, мелодрама, комедия, ...
  • Семейный доктор / House Calls (Ховард Зифф, драма, мелодрама, комедия, 1978 ...
  • Суперполицейский / Poliziotto superpiu (Серджио Корбуччи, фантастика, фэнте ...
  • Информация
    Посетители, находящиеся в группе Гости, не могут оставлять комментарии к данной публикации.