вход на сайт

Имя пользователя :
Пароль :

Восстановление пароля Регистрация
Королева викингов / The Viking Queen (Дон Чэффи, боевик, приключения, 1967) [DVDRip, Профессиональный (многоголосый, закадровый)+оригинал]
Рейтинг:
(голосов: 1)



[img]{THEME}/images/logopost.png[/img]



Королева викингов / The Viking Queen

Год выпуска: 1967
Страна: Великобритания
Производство: Hammer Film Productions Limited, Seven Arts Productions
Жанр: боевик, приключения

Режиссёр: Дон Чэффи
В ролях: Дон Мюррэй, Карита Дональд Хьюстон, Эндрю Кир, Эдриенн Корри, Ниалл МакГиннис, Уилфрид Лоусон, Никола Паже, Перси Херберт, Патрик Тротон.

Перевод: Профессиональный (многоголосый, закадровый)+оригинал
Субтитры: Отсутствуют

Описание:
Выполняя волю умирающего отца, королева Салина делит власть с римлянином Юстинианом. Это не устраивает кровожадных жрецов-друидов. Они плетут заговор против Салины, которая влюбляется в римлянина.


Дополнительно:
MediaInfo ▼Text
Общее
Полное имя :K:РАЗДАЧАКоролева викинговkoroleva_vikingov.avi
Формат :AVI
Размер :1.37 GiB
Продолжительность :01:27:00.048
Общий поток :2 258 Kbps
Программа кодирования :VirtualDubModRus 1.5.10.2 (build 2540/release)

Видео
Идентификатор :0
Формат :MPEG-4 Visual
Профиль формата :Advanced [email protected]
Параметр BVOP формата :2
Параметр Qpel формата :No
Параметр GMC формата :0
Параметр Matrix формата :Default (MPEG)
Идентификатор кодека :XVID
Продолжительность :1h 27mn 0s 40ms
Битрейт :1 988 Kbps
Ширина :704 pixels
Высота :368 pixels
Соотношение сторон :1.913
Частота кадров :25.000 fps
Глубина цвета :8 bits
Подвыборка цветности :4:2:0
Цветовое пространство :YUV
Тип развертки :Progressive
Бит/(Пиксели*Кадры) :0.307
Размер потока :1.21 GiB (88%)
Библиотека кодирования :XviD0046

Аудио #1
Идентификатор :1
Формат :MPEG Audio
Идентификатор кодека :55
Продолжительность :01:27:00.048
Вид битрейта :Constant
Битрейт :128 Kbps
Канал(ы) :2 channels
Частота :48.0 KHz
Метод сжатия :Lossy
Размер потока :79.7 MiB (6%)

Аудио #2
Идентификатор :2
Формат :MPEG Audio
Идентификатор кодека &
ef3dafc95f9775b9cc9ef1f0977003b78c35253eКоролева викингов / The Viking Queen (Дон Чэффи, боевик, приключения, 1967) [DVDRip, Профессиональный (многоголосый, закадровый)+оригинал] Королева викингов / The Viking Queen (Дон Чэффи, боевик, приключения, 1967) [DVDRip, Профессиональный (многоголосый, закадровый)+оригинал] " />

Аплоадер: Админ, дата: 21-09-2012, 19:44, торрент скачан: 359 раз

Понравилась раздача? Посмотрите эти:
  • Привидения по-итальянски / Questi fantasmi (Ренато Кастеллани, фэнтези, ком ...
  • Вечерние посетители / Les visiteurs du soir (Марсель Карне, фэнтези, драма, ...
  • Мушетт / Mouchette (Робер Брессон, драма, 1967) [DVDRip, Профессиональный ( ...
  • Королевский моряк / Single-Handed (Рой Боултинг, боевик, драма, военный, 19 ...
  • Похищенный / Kidnapped (Роберт Стивенсон, драма, приключения, семейный, 196 ...
  • Пройдоха / I Tartassati (Стено, комедия, 1959) [DVDRip, Профессиональный (м ...
  • С террасы / From the Terrace (Марк Робсон, драма, мелодрама, 1960) [DVDRip, ...
  • Морские волки: Последняя атака калькуттской легкой кавалерии / The Sea Wolv ...
  • Там, где гнездятся орлы / Where Eagles Dare (Брайан Дж. Хаттон, боевик, при ...
  • Эль Сид / El Cid (Энтони Манн, боевик, драма, мелодрама, военный, биография ...
  • Чудесное спасение белых скакунов / Miracle of the White Stallions (Артур Хи ...
  • Таинственный остров / Остров приключений / Mysterious Island (Сай Эндфилд, ...
  • Жить, чтобы жить / Vivre Pour Vivre (Клод Лелуш, драма, 1967) [DVDRip, Проф ...
  • Укрощение строптивой / The Taming of the Shrew (Франко Дзеффирелли, комедия ...
  • Человек, который хотел быть королем / The Man Who Would Be King (Джон Хьюст ...
  • Лиловая равнина / The Purple Plain (Роберт Пэрриш, боевик, драма, приключен ...
  • Бог знает, мистер Аллисон / Heaven Knows, Mr. Allison (Джон Хьюстон, боевик ...
  • Мой дядюшка / Mon oncle (Жак Тати, комедия, 1958) [DVDRip, Профессиональный ...
  • Суперполицейский / Poliziotto superpiu (Серджио Корбуччи, фантастика, фэнте ...
  • Робинзон Крузо / Robinson Crusoe (Луис Бунюэль, драма, приключения, 1954) [ ...
  • Расплата кровью / The Man Who Came Back (Глен Питре, боевик, драма, вестерн ...
  • Повышение / The Promotion (Стив Конрад, Комедия, 2008) [DVDRip, Профессиона ...
  • Уик-энд / Week End (Жан-Люк Годар, драма, комедия, 1967) [DVDRip, Профессио ...
  • Властелин джунглей / Ghatothkach (Сингитам Шриниваса Рао, мультфильм, 2008) ...
  • Улица Прери / Rue des Prairies (Дени де Ла Пательер, драма, 1959) [DVDRip, ...
  • Информация
    Посетители, находящиеся в группе Гости, не могут оставлять комментарии к данной публикации.