вход на сайт

Имя пользователя :
Пароль :

Восстановление пароля Регистрация
День добрый, улыбка! / Bonjour sourire! (Клод Соте, комедия, 1956) [DVDRip, Профессиональный (многоголосый, закадровый)]
Рейтинг:
(голосов: 1)



[img]{THEME}/images/logopost.png[/img]



День добрый, улыбка! / Bonjour sourire!

Год выпуска: 1956
Страна: Франция
Производство: Tarcali-Films, Vox Films
Жанр: комедия

Режиссёр: Клод Соте
В ролях: Луи де Фюнес,Генри Сальвадор, Джимми Гэллард, Анни Корди, Андре Филип, Жан Карме, Лизетт Лебон и другие
Жанр: Комедия

Перевод: Профессиональный (многоголосый, закадровый)
Субтитры: Отсутствуют

Описание:
В королевстве Монте-Марино живёт принцесса-несмеяна Алина. Влюблённый в неё рыцарь Эрсени хочет жениться на ней, но брак возможен только с тем, кто сможет рассмешить принцессу. Для этого со всего королевства приглашают известных комедиантов…


Дополнительно:
MediaInfo ▼Text
Общее
Полное имя :K:РАЗДАЧАЗдравствуй, улыбка!Здравствуй,улыбкаЗдравствуйУлыбка.avi
Формат :AVI
Размер :1.37 GiB
Продолжительность :01:26:08.400
Общий поток :2 280 Kbps
Программа кодирования :FairUse Wizard - http://fairusewizard.com
Библиотека кодирования :The best and REALLY easy backup tool

Видео
Идентификатор :0
Формат :MPEG-4 Visual
Профиль формата :Advanced [email protected]
Параметр BVOP формата :1
Параметр Qpel формата :No
Параметр GMC формата :0
Параметр Matrix формата :Default (H.263)
Идентификатор кодека :XVID
Продолжительность :1h 26mn 8s 400ms
Битрейт :2 142 Kbps
Ширина :704 pixels
Высота :512 pixels
Соотношение сторон :1.375
Частота кадров :25.000 fps
Глубина цвета :8 bits
Подвыборка цветности :4:2:0
Цветовое пространство :YUV
Тип развертки :Progressive
Бит/(Пиксели*Кадры) :0.238
Размер потока :1.29 GiB (94%)
Библиотека кодирования :XviD0041

Аудио #1
Идентификатор :1
Формат :MPEG Audio
Идентификатор кодека :55
Продолжительность :01:26:08.400
Вид битрейта :Constant
Битрейт :128 Kbps
Канал(ы) :2 channels
Частота :48.0 KHz
Метод сжатия :Lossy
Размер потока :78.9 MiB (6%)Тех. данные:
Качество:DVDRip
Продолжительность:01:26:00 час

Формат: AVI
Видео кодек: XviD
Аудио кодек: &nb
194d471c1bc83bc2ec6b0aaa5b47e0ec88124f77День добрый, улыбка! / Bonjour sourire! (Клод Соте, комедия, 1956) [DVDRip, Профессиональный (многоголосый, закадровый)] День добрый, улыбка! / Bonjour sourire! (Клод Соте, комедия, 1956) [DVDRip, Профессиональный (многоголосый, закадровый)] " />

Аплоадер: Админ, дата: 20-09-2012, 04:21, торрент скачан: 359 раз

Понравилась раздача? Посмотрите эти:
  • Добрый сынок / The Good Son (Джозеф Рубин, ужасы, триллер, драма, 1993) [DV ...
  • Сезар и Розали / Cesar et Rosalie (Клод Соте, драма, комедия, 1972) [BDRip, ...
  • Макс и жестянщики / Max et les ferrailleurs (Клод Соте, драма, мелодрама, к ...
  • Магазинчик за углом / The Shop Around the Corner (Эрнст Любич, драма, мелод ...
  • Апач / Apache (Роберт Олдрич, вестерн, 1954) [DVDRip, Профессиональный (мно ...
  • Не пойман - не вор / Ni vu, ni connu (Ив Робер, комедия, 1958) [DVDRip, Про ...
  • Чудовище / LAnimal (Клод Зиди, комедия, 1977) [DVDRip, Профессиональный (по ...
  • Шарло в Испании / Les Charlots font lEspagne (Жан Жиро, комедия, 1972) [DVD ...
  • Подмена / Switch (Блейк Эдвардс, фэнтези, комедия, криминал, 1991) [DVDRip, ...
  • Тысяча и одна ночь / Чудеса Аладдина / The Wonders of Aladdin / Le meravigl ...
  • Вальсирующие / Les valseuses (Бертран Блие, драма, комедия, криминал, 1966) ...
  • Любовники / Les amants (Луи Малль, драма, 1958) [DVDRip, Профессиональный ( ...
  • Жить, чтобы жить / Vivre Pour Vivre (Клод Лелуш, драма, 1967) [DVDRip, Проф ...
  • Укрощение строптивой / The Taming of the Shrew (Франко Дзеффирелли, комедия ...
  • Суп из капусты / La soupe aux choux (Жан Жиро, фантастика, комедия, 1981) [ ...
  • Адела еще не ужинала / Adela jeste nevecerela (Ольдржих Липский, комедия, к ...
  • Мы поедем в Дювиль / Nous irons a Deauville (Френсис Риго, комедия, 1962) [ ...
  • Глупый, но дисциплинированный / Bete, mais discipline (Клод Зиди, комедия, ...
  • Ночная Маргарита / Marguerite de la nuit (Клод Отан-Лара, фэнтези, драма, 1 ...
  • Повышение / The Promotion (Стив Конрад, Комедия, 2008) [DVDRip, Профессиона ...
  • Уик-энд / Week End (Жан-Люк Годар, драма, комедия, 1967) [DVDRip, Профессио ...
  • Улица Прери / Rue des Prairies (Дени де Ла Пательер, драма, 1959) [DVDRip, ...
  • Школа воров 2 / Scuola di ladri - parte seconda (Нери Паренти, Комедия, 198 ...
  • Бессмертная тетушка / Nesmrtelna teta (Зденек Зеленка, комедия, 1993) [DVDR ...
  • В добрый час! (Виктор Эйсымонт, драма, мелодрама, 1956) [DVDRip, Не требует ...
  • Информация
    Посетители, находящиеся в группе Гости, не могут оставлять комментарии к данной публикации.