вход на сайт

Имя пользователя :
Пароль :

Восстановление пароля Регистрация
Бог знает, мистер Аллисон / Heaven Knows, Mr. Allison (Джон Хьюстон, боевик, драма, приключения, военный, 1957) [DVDRip, Профессиональный (двухголосый, закадровый)+Профессиональный (одноголосый, закадровый)+оригинал]
Рейтинг:
(голосов: 1)



[img]{THEME}/images/logopost.png[/img]





Бог знает, мистер Аллисон / Heaven Knows, Mr. Allison

Год выпуска: 1957
Страна: США
Производство: 20th Century Fox Film Corporation
Жанр: боевик, драма, приключения, военный

Режиссёр: Джон Хьюстон
В ролях: Дебора Керр, Роберт Митчум, Фусамото Такасими, Нобору Иошита

Перевод: Профессиональный (двухголосый, закадровый)+Профессиональный (одноголосый, закадровый)+оригинал
Субтитры: Отсутствуют

Описание:
Морской пехотинец и монашенка на маленьком атолле в Тихом океане прячутся от японцев, пытаясь скрыть свои чувства друг от друга.


Дополнительно:
MediaInfo ▼Text
Общее
Полное имя :K:РАЗДАЧАБог знает, мистер Аллисонbog_znaet_mister_allisonbog_znaet_mister_alllison.avi
Формат :AVI
Размер :1.55 GiB
Продолжительность :01:46:08.988
Общий поток :2 096 Kbps
Программа кодирования :VirtualDubModRus 1.5.10.2 (build 2540/release)
Библиотека кодирования :VirtualDubMod build 2540/release

Видео
Идентификатор :0
Формат :MPEG-4 Visual
Профиль формата :Advanced [email protected]
Параметр BVOP формата :2
Параметр Qpel формата :No
Параметр GMC формата :0
Параметр Matrix формата :Default (MPEG)
Идентификатор кодека :XVID
Продолжительность :1h 46mn 8s 988ms
Битрейт :1 694 Kbps
Ширина :720 pixels
Высота :304 pixels
Соотношение сторон :2.368
Частота кадров :23.976 fps
Глубина цвета :8 bits
Подвыборка цветности :4:2:0
Цветовое пространство :YUV
Тип развертки :Progressive
Бит/(Пиксели*Кадры) :0.323
Размер потока :1.26 GiB (81%)
Библиотека кодирования :XviD0046

Аудио #1
Идентификатор :1
Формат :MPEG Audio
Идентификатор кодека :55
Продолжительность :01:46:08.976
Вид битрейта :Constant
Битрейт :128 Kbps
Канал(ы) :2 channels
Частота :48.0 KHz
Метод сжатия :Lossy
Размер потока :97.2 MiB (6%)

Аудио #2
Идентификатор :2
Формат :MPEG Audio
Идентификатор код
cd7f122d9606e496baa333257aebaff63258956cБог знает, мистер Аллисон / Heaven Knows, Mr. Allison (Джон Хьюстон, боевик, драма, приключения, военный, 1957) [DVDRip, Профессиональный (двухголосый, закадровый)+Профессиональный (одноголосый, закадровый)+оригинал] Бог знает, мистер Аллисон / Heaven Knows, Mr. Allison (Джон Хьюстон, боевик, драма, приключения, военный, 1957) [DVDRip, Профессиональный (двухголосый, закадровый)+Профессиональный (одноголосый, закадровый)+оригинал] " />

Аплоадер: Админ, дата: 11-09-2012, 23:20, торрент скачан: 359 раз

Понравилась раздача? Посмотрите эти:
  • Коллекционер / The Collector (Уильям Уайлер, триллер, драма, 1958) [DVDRip, ...
  • Поездка в Америку / Coming to America (Джон Лэндис, драма, мелодрама, комед ...
  • Свидетель обвинения / Witness for the Prosecution (Билли Уайлдер, драма, де ...
  • Королевский моряк / Single-Handed (Рой Боултинг, боевик, драма, военный, 19 ...
  • Командное решение / Command decision (Сэм Вуд, драма, военный, 1948) [DVDRi ...
  • Спасите тигра / Save the Tiger (Джон Г. Эвилдсен, драма, 1973) [DVDRip, Про ...
  • Мистер Аркадин / Mr. Arkadin (Орсон Уэллс, триллер, драма, криминал, детект ...
  • Процесс Жанны Д Арк / Proces de Jeanne dArc (Робер Брессон, драма, военный, ...
  • Песчаные крысы / The Desert Rats (Роберт Уайз, боевик, драма, приключения, ...
  • Чудесное спасение белых скакунов / Miracle of the White Stallions (Артур Хи ...
  • Пуск торпеды / Torpedo Run (Джозеф Пивни, драма, военный, 1958) [DVDRip, Ав ...
  • Человек, который хотел быть королем / The Man Who Would Be King (Джон Хьюст ...
  • Ад для героев / Hell Is for Heroes (Дон Сигел, боевик, драма, военный, 1962 ...
  • Победа / Victory (Джон Хьюстон, боевик, драма, военный, спорт, 1981) [HDTVR ...
  • Лиловая равнина / The Purple Plain (Роберт Пэрриш, боевик, драма, приключен ...
  • Зелиг / Zelig (Вуди Аллен, фэнтези, комедия, 1983) [DVDRip, Авторский (одно ...
  • Красавица Мемфиса / Memphis Belle (Майкл Кейтон-Джонс, боевик, драма, военн ...
  • Оскорбление / The Offence (Сидни Люмет, триллер, драма, криминал, 1972) [DV ...
  • Королева викингов / The Viking Queen (Дон Чэффи, боевик, приключения, 1967) ...
  • Под покровом небес / The Sheltering Sky (Бернардо Бертолуччи, драма, мелодр ...
  • Прощай, король / Farewell to the King (Джон Милиус, боевик, драма, приключе ...
  • Сделано в Раю / Made in Heaven (Алан Рудольф, фэнтези, мелодрама, комедия, ...
  • Кавалеристы / The Horse Soldiers (Джон Форд, приключения, вестерн, военный, ...
  • Пески Иво Джимы / Sands of Iwo Jima (Аллан Дуон, боевик, драма, мелодрама, ...
  • Убей! / Kiru (Кихачи Окамото, боевик, драма, комедия, 1968) [DVDRip, Профес ...
  • Информация
    Посетители, находящиеся в группе Гости, не могут оставлять комментарии к данной публикации.