вход на сайт

Имя пользователя :
Пароль :

Восстановление пароля Регистрация
Нет орхидей для мисс Блэндиш / No Orchids for Miss Blandish (St. John Legh Clowes, драма, криминал, 1948) [DVDRip, Профессиональный (многоголосый, закадровый)+оригинал]
Рейтинг:
(голосов: 1)



[img]{THEME}/images/logopost.png[/img]



Нет орхидей для мисс Блэндиш / No Orchids for Miss Blandish

Год выпуска: 1948
Страна: Великобритания
Производство: Tudor-Alliance
Жанр: драма, криминал

Режиссёр: St. John Legh Clowes
В ролях: Джек Ла Ру, Хью МакДермотт, Линден Треверс, Уолтер Кришэм, МакДональд Парк, Дэнни Грин, Лилли Мольнар, Чарльз Голднер, Зои Гэйл, Лесли Брэдли, Ричард Нилсон, Майкл Бальфур

Перевод: Профессиональный (многоголосый, закадровый)+оригинал
Субтитры: Отсутствуют

Описание:
Взросля дочь богача — мисс Блендиш, была похищена с целью выкупа и попала в руки банды под руководством престарелой преступницы Ма Гриссон. Вначале все пошло по плану, но потом события приняли неожиданный оборот…


Дополнительно:
MediaInfo ▼Text
Общее
Полное имя :M:ФильмыРАЗДАЧАНет орхидей для мисс БлэндишNet.orhidej.dlja.miss.Bljendish.1948.XviD.DVDRip.avi
Формат :AVI
Размер :1.38 GiB
Продолжительность :01:43:16.512
Общий поток :1 910 Kbps

Видео
Идентификатор :0
Формат :MPEG-4 Visual
Профиль формата :[email protected]
Параметр BVOP формата :No
Параметр Qpel формата :No
Параметр GMC формата :0
Параметр Matrix формата :Default (H.263)
Идентификатор кодека :XVID
Продолжительность :1h 43mn 16s 496ms
Битрейт :1 508 Kbps
Ширина :640 pixels
Высота :480 pixels
Соотношение сторон :1.333
Частота кадров :29.970 fps
Глубина цвета :8 bits
Подвыборка цветности :4:2:0
Цветовое пространство :YUV
Тип развертки :Progressive
Бит/(Пиксели*Кадры) :0.164
Размер потока :1.09 GiB (79%)
Библиотека кодирования :XviD0046

Аудио #1
Идентификатор :1
Формат :AC-3
Формат/Информация :Audio Coding 3
Идентификатор кодека :2000
Продолжительность :01:43:16.160
Вид битрейта :Constant
Битрейт :192 Kbps
Канал(ы) :2 channels
Расположение каналов :Front: L R
Частота :48.0 KHz
Битовая глубина :16 bits
Метод сжатия :Lossy
Размер потока :142 MiB (10%)

Аудио #2
Идентификатор
5fa4f0bc7ec6542ec6ef93a44d16242d00aa188aНет орхидей для мисс Блэндиш / No Orchids for Miss Blandish (St. John Legh Clowes, драма, криминал, 1948) [DVDRip, Профессиональный (многоголосый, закадровый)+оригинал] Нет орхидей для мисс Блэндиш / No Orchids for Miss Blandish (St. John Legh Clowes, драма, криминал, 1948) [DVDRip, Профессиональный (многоголосый, закадровый)+оригинал] " />

Аплоадер: Админ, дата: 11-09-2012, 01:20, торрент скачан: 359 раз

Понравилась раздача? Посмотрите эти:
  • Расцвет мисс Джин Броди / The Prime of Miss Jean Brodie (Роналд Ним, драма, ...
  • Свидетель обвинения / Witness for the Prosecution (Билли Уайлдер, драма, де ...
  • Похитители велосипедов / Ladri di biciclette (Витторио Де Сика, драма, крим ...
  • Командное решение / Command decision (Сэм Вуд, драма, военный, 1948) [DVDRi ...
  • Час свиньи / The Hour of the Pig (Лесли Мегахи, Драма, история, криминал, д ...
  • Влюбиться в мисс Хатто / Loving Miss Hatto (Эйслинг Уолш, Драма, 2012) [HDT ...
  • Кошка на раскаленной крыше / Cat on a Hot Tin Roof (Ричард Брукс, драма, 19 ...
  • Мисс Поттер / Miss Potter (Крис Нунен, драма, биография, 2006) [HDRip, Проф ...
  • Вальсирующие / Les valseuses (Бертран Блие, драма, комедия, криминал, 1966) ...
  • Свидетель обвинения / Witness for the Prosecution (Билли Уайлдер, триллер, ...
  • Маленькая мисс Счастье / Little Miss Sunshine (Джонатан Дэйтон, Валери Фэри ...
  • Жить, чтобы жить / Vivre Pour Vivre (Клод Лелуш, драма, 1967) [DVDRip, Проф ...
  • Шофер мисс Дэйзи / Driving Miss Daisy (Брюс Бересфорд, драма, комедия, 1989 ...
  • Квадрофения / Quadrophenia (Фрэнк Роддэм, драма, криминал, музыка, 1979) [H ...
  • Письмо от неизвестной женщины / Letter from an unknown woman (Макс Офюльс, ...
  • Робинзон Крузо / Robinson Crusoe (Луис Бунюэль, драма, приключения, 1954) [ ...
  • Скандал в Клошмерле / Clochemerle (Пьер Шеналь, комедия, 1948) [DVDRip, Про ...
  • Уик-энд / Week End (Жан-Люк Годар, драма, комедия, 1967) [DVDRip, Профессио ...
  • Хад / Hud (Мартин Ритт, драма, 1963) [DVDRip, Профессиональный (многоголосы ...
  • Чужестранец / The Stranger (Орсон Уэллс, фильм-нуар, триллер, драма, кримин ...
  • Информация
    Посетители, находящиеся в группе Гости, не могут оставлять комментарии к данной публикации.