вход на сайт

Имя пользователя :
Пароль :

Восстановление пароля Регистрация
Кафе–экспресс / Cafe Express (Нанни Лой, комедия, 1980) [DVDRip, Профессиональный (двухголосый, закадровый)]
Рейтинг:
(голосов: 1)



[img]{THEME}/images/logopost.png[/img]



Кафе–экспресс / Cafe Express

Год выпуска: 1980
Страна: Италия
Производство: Vides Cinematografica
Жанр: комедия

Режиссёр: Нанни Лой
В ролях: Нино Манфреди, Адольфо Чели, Витторио Каприоли, Витторио Меццоджорно, Марцио Онорато, Джиджи Редер, Луиджи Базагалуппи, Мариса Лаурито, Витторио Марсилья, Маурицио Микели

Перевод: Профессиональный (двухголосый, закадровый)
Субтитры: Отсутствуют

Описание:
Микеле зарабатывает на жизнь, продавая пассажирам поезда кофе, будя их на нужной станции, оказывая мелкие услуги и просто развлекая. Полиция получает указание задержать правонарушителя…


Дополнительно:
MediaInfo ▼Text
Общее
Полное имя :J:Кинокопилка.РуРАЗДАЧАКафе-экспрессKafe.ekspress.1980.XviD.DVDRip.avi
Формат :AVI
Размер :1.37 GiB
Продолжительность :01:33:09.120
Общий поток :2 109 Kbps

Видео
Идентификатор :0
Формат :MPEG-4 Visual
Профиль формата :[email protected]
Параметр BVOP формата :No
Параметр Qpel формата :No
Параметр GMC формата :0
Параметр Matrix формата :Default (H.263)
Идентификатор кодека :XVID
Продолжительность :1h 33mn 9s 40ms
Битрейт :1 906 Kbps
Ширина :720 pixels
Высота :384 pixels
Соотношение сторон :1.875
Частота кадров :25.000 fps
Глубина цвета :8 bits
Подвыборка цветности :4:2:0
Цветовое пространство :YUV
Тип развертки :Progressive
Бит/(Пиксели*Кадры) :0.276
Размер потока :1.24 GiB (90%)
Библиотека кодирования :XviD0046

Аудио #1
Идентификатор :1
Формат :AC-3
Формат/Информация :Audio Coding 3
Идентификатор кодека :2000
Продолжительность :01:33:09.120
Вид битрейта :Constant
Битрейт :192 Kbps
Канал(ы) :2 channels
Расположение каналов :Front: L R
Частота :48.0 KHz
Битовая глубина :16 bits
Метод сжатия :Lossy
Размер потока :128 MiB (9%)Тех. данные:
Качество:DVDRip
Продолжительность:01:33:00 час

Формат: AVI
Видео кодек: XviD
Аудио кодек
644ef5ccaa0bbbbaffa9e6f797a77522dfae52d3Кафе–экспресс / Cafe Express (Нанни Лой, комедия, 1980) [DVDRip, Профессиональный (двухголосый, закадровый)] Кафе–экспресс / Cafe Express (Нанни Лой, комедия, 1980) [DVDRip, Профессиональный (двухголосый, закадровый)] " />

Аплоадер: Админ, дата: 9-09-2012, 20:16, торрент скачан: 359 раз

Понравилась раздача? Посмотрите эти:
  • Танго ревности / Il tango della gelosia (Энрико Ванцина, Стено, Альдо Де Бе ...
  • Гарри-карманник / Harry in Your Pocket (Брюс Геллер, драма, комедия, кримин ...
  • Докторша и полковник / La dottoressa ci sta col colonnello (Мишель Массимо ...
  • Моя новая машина / It Takes Two (Дэвид Биэрд, комедия, 1988) [HDTVRip, Проф ...
  • Однажды на матрасе / Once Upon a Mattress (Кэтлин Маршалл, мюзикл, мелодрам ...
  • Девушка со швейной машинкой (Михаил Чиаурели, Георгий Шенгелая, комедия, 19 ...
  • Похитители велосипедов / Ladri di biciclette (Витторио Де Сика, драма, крим ...
  • Обнаженная / Naked (Майк Ли, драма, комедия, 1993) [DVDRip, (2х)Профессиона ...
  • Шелковица / Молодость. Выпуск 2 (Геннадий Мелконян, Андрей Ермаш, Автандил ...
  • Сладкая жизнь / La dolce vita (Федерико Феллини, драма, комедия, 1959) [DVD ...
  • Процесс Жанны Д Арк / Proces de Jeanne dArc (Робер Брессон, драма, военный, ...
  • Шарло в Испании / Les Charlots font lEspagne (Жан Жиро, комедия, 1972) [DVD ...
  • Экспресс Фон Райена / Von Ryans Express (Марк Робсон, боевик, приключения, ...
  • Удача (Баадур Цуладзе, короткометражка, комедия, 1980) [TVRip, Профессионал ...
  • У матросов нет вопросов (Владимир Роговой, мюзикл, комедия, 1980) [DVDRip, ...
  • Тристана / Tristana (Луис Бунюэль, Драма, 1970) [DVDRip, Профессиональный ( ...
  • Переполох в облаках / Poplach v oblacich (Индрих Полак, семейный, 1980) [DV ...
  • Мой слуга Годфри / My Man Godfrey (Грегори Ла Кава, мелодрама, комедия, 193 ...
  • Великий Уолдо Пеппер / The Great Waldo Pepper (Джордж Рой Хилл, драма, прик ...
  • Суперполицейский / Poliziotto superpiu (Серджио Корбуччи, фантастика, фэнте ...
  • Дамы и господа, спокойной ночи! / Signore e signori, buonanotte (Луиджи Ком ...
  • Дьявольское око / Djдvulens цga (Ингмар Бергман, фэнтези, драма, комедия, 1 ...
  • Убей! / Kiru (Кихачи Окамото, боевик, драма, комедия, 1968) [DVDRip, Профес ...
  • Четыре дня Неаполя / Le quattro giornate di Napoli (Нанни Лой, драма, военн ...
  • Что навеял ветер / Something in the Wind (Ирвинг Пичел, мюзикл, комедия, 19 ...
  • Информация
    Посетители, находящиеся в группе Гости, не могут оставлять комментарии к данной публикации.