вход на сайт

Имя пользователя :
Пароль :

Восстановление пароля Регистрация
Неверные / Le infedeli (Марио Моничелли, Стено, драма, комедия, 1953) [DVDRip, Любительский (двухголосый, закадровый)]
Рейтинг:
(голосов: 1)



[img]{THEME}/images/logopost.png[/img]



Неверные / Le infedeli

Год выпуска: 1953
Страна: Франция, Италия
Производство: Excelsa Film, Ponti-De Laurentiis Cinematografica
Жанр: драма, комедия

Режиссёр: Марио Моничелли, Стено
В ролях: Джина Лоллобриджида, Мэй Бритт, Марина Влади, Пьер Крессо, Тина Латтанци, Карло Романо, Ирен Папас

Перевод: Любительский (двухголосый, закадровый)
Субтитры: Отсутствуют

Описание:
Предприниматель, уже в годах, желает жениться на совсем юной деве. Но он женат. Нужен развод, а для этого лучше всего — застукать свою половину с любовником. Вот и повод, вот и предлог. НО. Она верна. Предприниматель в отчаянии и обращается за помощью к…


Дополнительно:
MediaInfo ▼Text
Общее
Полное имя :D:РаздачаНеверныеLe Infedeli (1953)Le.Infedeli.1953.DVDRip.LooDeniz.HeroyAsfalta.rus.avi
Формат :AVI
Размер :1.45 GiB
Продолжительность :01:35:50.240
Общий поток :2 171 Kbps
Программа кодирования :VirtualDubMod 1.5.10.3 (build 2550/release)
Библиотека кодирования :VirtualDubMod build 2550/release

Видео
Идентификатор :0
Формат :MPEG-4 Visual
Профиль формата :Advanced [email protected]
Параметр BVOP формата :2
Параметр Qpel формата :No
Параметр GMC формата :0
Параметр Matrix формата :Custom
Идентификатор кодека :XVID
Продолжительность :1h 35mn 50s 240ms
Битрейт :2 033 Kbps
Ширина :640 pixels
Высота :480 pixels
Соотношение сторон :1.333
Частота кадров :25.000 fps
Глубина цвета :8 bits
Подвыборка цветности :4:2:0
Цветовое пространство :YUV
Тип развертки :Progressive
Бит/(Пиксели*Кадры) :0.265
Размер потока :1.36 GiB (94%)
Библиотека кодирования :XviD0065

Аудио #1
Идентификатор :1
Формат :MPEG Audio
Идентификатор кодека :55
Продолжительность :01:35:50.232
Вид битрейта :Constant
Битрейт :128 Kbps
Канал(ы) :2 channels
Частота :48.0 KHz
Метод сжатия :Lossy
Размер потока :87.7 MiB (6%)Тех. данные:
Качество:DVDRip
Продолжительность:01:35:50 час

Фо
9a7637cacc78c2b0dab166020d91a8225206cac3Неверные / Le infedeli (Марио Моничелли, Стено, драма, комедия, 1953) [DVDRip, Любительский (двухголосый, закадровый)] Неверные / Le infedeli (Марио Моничелли, Стено, драма, комедия, 1953) [DVDRip, Любительский (двухголосый, закадровый)] " />

Аплоадер: Админ, дата: 8-09-2012, 11:03, торрент скачан: 359 раз

Понравилась раздача? Посмотрите эти:
  • Отдел исполнения наказаний / La polizia ringrazia (Стено, драма, криминал, ...
  • Маркиз дель Грилло / Il Marchese del Grillo (Марио Моничелли, комедия, 1981 ...
  • Танго ревности / Il tango della gelosia (Энрико Ванцина, Стено, Альдо Де Бе ...
  • Обнаженная / Naked (Майк Ли, драма, комедия, 1993) [DVDRip, (2х)Профессиона ...
  • Королевский моряк / Single-Handed (Рой Боултинг, боевик, драма, военный, 19 ...
  • Полицейские и воры / Guardie e ladri (Марио Моничелли, Комедия, 1951) [DVDR ...
  • Мои друзья 2 / Amici miei atto II (Марио Моничелли, Комедия, 1982) [DVDRip, ...
  • Злоумышленники, как всегда, остались неизвестны / I soliti ignoti (Марио Мо ...
  • Пройдоха / I Tartassati (Стено, комедия, 1959) [DVDRip, Профессиональный (м ...
  • Казанова 70 / Casanova 70 (Марио Моничелли, драма, комедия, 1965) [DVDRip, ...
  • Процесс Жанны Д Арк / Proces de Jeanne dArc (Робер Брессон, драма, военный, ...
  • Синяя Ласточка / Cheong yeon (Джонг-Чан Юн, мелодрама, 2005) [DVDRip, Любит ...
  • Как выйти замуж за миллионера / How to Marry a Millionaire (Жан Негулеско, ...
  • Лето с Моникой / Sommaren med Monika (Ингмар Бергман, драма, мелодрама, 195 ...
  • Народный роман / Romanzo popolare (Марио Моничелли, драма, комедия, 1974) [ ...
  • Дьявольское око / Djдvulens цga (Ингмар Бергман, фэнтези, драма, комедия, 1 ...
  • Урок любви / En lektion i karlek (Ингмар Бергман, драма, комедия, 1954) [DV ...
  • Римлянка / La romana (Луиджи Дзампа, драма, 1954) [DVDRip, Любительский (од ...
  • Убей! / Kiru (Кихачи Окамото, боевик, драма, комедия, 1968) [DVDRip, Профес ...
  • Возвращение Василия Бортникова (Всеволод Пудовкин, драма, 1953) [DVDRip, Не ...
  • Информация
    Посетители, находящиеся в группе Гости, не могут оставлять комментарии к данной публикации.