вход на сайт

Имя пользователя :
Пароль :

Восстановление пароля Регистрация
Мы поедем в Дювиль / Nous irons a Deauville (Френсис Риго, комедия, 1962) [DVDRip, Профессиональный (многоголосый, закадровый)]
Рейтинг:
(голосов: 1)



[img]{THEME}/images/logopost.png[/img]



Мы поедем в Дювиль / Nous irons a Deauville

Год выпуска: 1962
Страна: Франция
Производство: Hoche Productions, Les Films Odeon, UFA-Cormacico
Жанр: комедия

Режиссёр: Френсис Риго
В ролях: Луи де Фюнес, Мишель Серро, Клод Брассер, Паскаль Роберт, Колетт Кастельоджер, Пьер Жан Ришар

Перевод: Профессиональный (многоголосый, закадровый)
Субтитры: Отсутствуют

Описание:
Люсьен и Дюбуа вместе с женами уезжают в отпуск на море в Дювиль. Но сразу же начинаются неприятности: арендуемая вилла совсем разрушена, их багаж, отправленный поездом теряется, на море они встречают патрона Люсьена и постоянно под ногами путается один суетливый отдыхающий…


Дополнительно:
MediaInfo ▼Text
Общее
Полное имя :J:Кинокопилка.РуРАЗДАЧАМы поедем в ДовильMy.poedem.v.Dovil.1962.DVDRip.avi
Формат :AVI
Размер :1.09 GiB
Продолжительность :01:20:26.960
Общий поток :1 941 Kbps
Программа кодирования :VirtualDubModRus 1.5.10.2 (build 2542/release)
Библиотека кодирования :VirtualDub build 32559/release

Видео
Идентификатор :0
Формат :MPEG-4 Visual
Профиль формата :Advanced [email protected]
Параметр BVOP формата :2
Параметр Qpel формата :No
Параметр GMC формата :0
Параметр Matrix формата :Default (MPEG)
Идентификатор кодека :XVID
Продолжительность :1h 20mn 26s 960ms
Битрейт :1 803 Kbps
Ширина :704 pixels
Высота :416 pixels
Соотношение сторон :1.692
Частота кадров :25.000 fps
Глубина цвета :8 bits
Подвыборка цветности :4:2:0
Цветовое пространство :YUV
Тип развертки :Progressive
Бит/(Пиксели*Кадры) :0.246
Размер потока :1.01 GiB (93%)
Библиотека кодирования :XviD0037

Аудио #1
Идентификатор :1
Формат :MPEG Audio
Идентификатор кодека :55
Продолжительность :01:20:26.960
Вид битрейта :Constant
Битрейт :128 Kbps
Канал(ы) :2 channels
Частота :44.1 KHz
Метод сжатия :Lossy
Размер потока :73.7 MiB (7%)Тех. данные:
Качество:DVDRip
Продолжительность:01:20:20 час

Фо
4c404f088458f15a2f39cd16347ed1f4eed3af00Мы поедем в Дювиль / Nous irons a Deauville (Френсис Риго, комедия, 1962) [DVDRip, Профессиональный (многоголосый, закадровый)] Мы поедем в Дювиль / Nous irons a Deauville (Френсис Риго, комедия, 1962) [DVDRip, Профессиональный (многоголосый, закадровый)] " />

Аплоадер: Админ, дата: 2-09-2012, 21:04, торрент скачан: 359 раз

Понравилась раздача? Посмотрите эти:
  • Воздыхатель / Le soupirant (Пьер Этекс, комедия, 1962) [DVDRip, Профессиона ...
  • Привидения по-итальянски / Questi fantasmi (Ренато Кастеллани, фэнтези, ком ...
  • Ход конем (Татьяна Лукашевич, комедия, 1962) [DVDRip, Не требуется]
  • Печёнка (Арман Манарян, короткометражка, комедия, 1962) [DVDRip, Не требует ...
  • К нам, маленькие англичанки! / A nous les petites Anglaises! (Мишель Ланг, ...
  • Процесс Жанны Д Арк / Proces de Jeanne dArc (Робер Брессон, драма, военный, ...
  • Семь нянек (Ролан Быков, комедия, 1962) [DVDRip, Не требуется]
  • Я, бабушка, Илико и Илларион (Тенгиз Абуладзе, мелодрама, комедия, 1962) [D ...
  • Преждевременное погребение / Premature Burial (Роджер Корман, ужасы, драма, ...
  • Деловые люди (полная реставрация) (Леонид Гайдай, комедия, драма, 1962) [DV ...
  • Увольнение на берег (Феликс Миронер, Рoмaнтичecкaя кoмeдия, 1962) [DVDRip, ...
  • Увольнение на берег (Феликс Миронер, Рoмaнтичecкaя кoмeдия, 1962) [DVDRip, ...
  • Дьявол и десять заповедей / Le diable et les dix commandements (Жюльен Дюви ...
  • Ад для героев / Hell Is for Heroes (Дон Сигел, боевик, драма, военный, 1962 ...
  • Будь красивой и молчи / Sois belle et tais-toi (Марк Аллегре, комедия, 1958 ...
  • День добрый, улыбка! / Bonjour sourire! (Клод Соте, комедия, 1956) [DVDRip, ...
  • Мой дядюшка / Mon oncle (Жак Тати, комедия, 1958) [DVDRip, Профессиональный ...
  • Погоня за Бенджи / Benji the Hunted (Джо Кэмп, приключения, семейный, 1987) ...
  • Собачий мир / Mondo cane (Паоло Кавара, Гуалтьеро Якопетти, Франко Проспери ...
  • Повышение / The Promotion (Стив Конрад, Комедия, 2008) [DVDRip, Профессиона ...
  • Уик-энд / Week End (Жан-Люк Годар, драма, комедия, 1967) [DVDRip, Профессио ...
  • Харакири / Seppuku (Масаки Кобаяси, драма, 1962) [DVDRip, Профессиональный ...
  • Близнец / Le jumeau (Ив Робер, Комедия, 1984) [DVDRip, Профессиональный (мн ...
  • Чудак-человек (Владимир Кочетов, комедия, 1962) [DVDRip, Не требуется]
  • Карьера Димы Горина (Фрунзе Довлатян, Лев Мирский, комедия, 1962) [DVDRip, ...
  • Информация
    Посетители, находящиеся в группе Гости, не могут оставлять комментарии к данной публикации.